<?xml version="1.0" standalone="no"?>
<!DOCTYPE svg PUBLIC "-//W3C//DTD SVG 1.1//EN" "http://www.w3.org/Graphics/SVG/1.1/DTD/svg11.dtd" >
<svg xmlns="http://www.w3.org/2000/svg">
<metadata></metadata>
<defs>
<font id="AdventProRegular" horiz-adv-x="991" >
<font-face units-per-em="2048" ascent="1638" descent="-410" />
<missing-glyph horiz-adv-x="569" />
<glyph horiz-adv-x="0" />
<glyph horiz-adv-x="2048" />
<glyph unicode="&#xd;" horiz-adv-x="681" />
<glyph unicode=" "  horiz-adv-x="569" />
<glyph unicode="&#x09;" horiz-adv-x="569" />
<glyph unicode="&#xa0;" horiz-adv-x="569" />
<glyph unicode="!" horiz-adv-x="460" d="M160 67.5q0 26.5 20.5 47t47 20.5t47 -20.5t20.5 -47t-20.5 -47t-47 -20.5t-47 20.5t-20.5 47zM162 1378q0 76 67.5 76t67.5 -74l-18 -1134h-97z" />
<glyph unicode="&#x22;" horiz-adv-x="872" d="M215 1434q0 45 35 63q16 10 35 10l34 -10q35 -18 35 -63l-28 -385h-82zM512 1434q0 45 35 63q18 10 35 10l34 -10q35 -18 35 -63l-28 -385h-82z" />
<glyph unicode="#" horiz-adv-x="1255" d="M70 387v115h272l82 344h-354v115h381l110 473h113l-111 -473h244l111 473h112l-110 -473h272v-115h-299l-82 -344h381v-115h-408l-90 -387h-112l90 387h-244l-90 -387h-113l90 387h-245zM455 502h243l82 344h-243z" />
<glyph unicode="$" horiz-adv-x="1105" d="M70 365h116q8 -98 92 -179.5t220 -95.5v635q-166 57 -269 127q-123 88 -123 250q0 129 100.5 230.5t291.5 117.5v223h114v-221q139 -4 254 -59q0 -4 -35 -109q-98 51 -219 57v-534q258 -88 344 -184t86 -230q0 -178 -104 -288.5t-326 -124.5v-213h-114v213 q-199 16 -311.5 129.5t-116.5 255.5zM225 1101q0 -97 71 -152.5t202 -102.5v493q-127 -16 -200 -78.5t-73 -159.5zM612 90q135 14 221.5 85t86.5 197t-79 191.5t-229 120.5v-594z" />
<glyph unicode="%" horiz-adv-x="1376" d="M70 84l1161 1432l82 -84l-1172 -1430zM82 1194q0 123 86 209t209 86t209 -86t86 -209t-86 -209t-209 -86t-209 86t-86 209zM184 1194q0 -76 53.5 -134.5t139.5 -58.5t139 58.5t53 134.5t-53 134t-139 58t-139.5 -58t-53.5 -134zM719 272.5q0 122.5 86 208.5t209 86 t209 -86t86 -208.5t-86 -209t-209 -86.5t-209 86.5t-86 209zM821 272.5q0 -75.5 53.5 -134t139.5 -58.5t139 58.5t53 134t-53 134t-139 58.5t-139.5 -58.5t-53.5 -134z" />
<glyph unicode="&#x26;" horiz-adv-x="1122" d="M72 357.5q0 138.5 47 230.5t117.5 148.5t127 88t138.5 66.5q-68 10 -126 81t-59 187q0 156 132 242q88 55 173 55t158 -24l-63 -95q-127 38 -213 -26q-74 -59 -74 -148q0 -125 102 -180q59 -33 105.5 -33t75.5 6l55 11v280h117v-256l149 33l25 -109l-174 -38v-588 q0 -178 135 -223l-33 -89q-78 23 -132 75t-69 126q-119 -201 -350 -201q-184 0 -274 121t-90 259.5zM184 364.5q0 -112.5 65.5 -194.5t203 -82t226.5 110t89 251v403q-299 -68 -436 -176q-55 -45 -101.5 -122t-46.5 -189.5z" />
<glyph unicode="'" horiz-adv-x="352" d="M94 1434q0 45 35 63q18 10 35 10l35 -10q35 -18 34 -63l-28 -228h-82z" />
<glyph unicode="(" horiz-adv-x="575" d="M160 145v1139q0 160 49 241t166 148l37 -76q-137 -102 -138 -294v-1176q1 -193 138 -295l-37 -76q-117 68 -166 149t-49 240z" />
<glyph unicode=")" horiz-adv-x="575" d="M160 -168q137 102 137 295v1176q0 193 -137 294l37 76q117 -68 166 -148.5t49 -240.5v-1139q0 -160 -49 -240.5t-166 -148.5z" />
<glyph unicode="*" horiz-adv-x="720" d="M49 1186l37 98l217 -82v232h109v-232l219 82l41 -98l-223 -78l135 -186l-84 -64l-142 197l-133 -197l-92 64l133 186z" />
<glyph unicode="+" horiz-adv-x="788" d="M70 733v113h272v270h113v-270h270v-113h-270v-272h-113v272h-272z" />
<glyph unicode="," horiz-adv-x="325" d="M23 -115q92 53 118 95l11 14l-21 6q-37 27 -36 63.5t20.5 54t34 17.5t29 -1t36 -24.5t21.5 -54.5q-1 -118 -132 -227z" />
<glyph unicode="-" horiz-adv-x="839" d="M92 733v113h656v-113h-656z" />
<glyph unicode="." horiz-adv-x="245" d="M23 67.5q0 26.5 19 47t48 20.5t48.5 -20.5t19.5 -47t-19.5 -47t-48.5 -20.5t-48 20.5t-19 47z" />
<glyph unicode="/" horiz-adv-x="878" d="M49 -233l664 1906h116l-655 -1906h-125z" />
<glyph unicode="0" horiz-adv-x="1124" d="M129 379v659q0 211 115.5 319.5t318.5 108.5t314.5 -114.5t111.5 -315.5v-657q0 -207 -126 -304.5t-302 -97.5t-304 97.5t-128 304.5zM244 381q0 -145 89 -220t227 -75t227.5 72.5t89.5 224.5v674q0 150 -87.5 225.5t-230.5 75.5t-229 -76t-86 -225v-676z" />
<glyph unicode="1" horiz-adv-x="428" d="M49 1313q45 0 109.5 34.5t105.5 86.5h115v-1434h-115v1298q-62 -58 -158 -86l-30 -8z" />
<glyph unicode="2" horiz-adv-x="817" d="M49 0v109l520 788q74 119 74 222.5t-72.5 165t-154.5 61.5t-143.5 -49.5t-90.5 -129.5l-106 41q39 109 124 177.5t221 68.5t239.5 -90t103.5 -228.5t-90 -289.5l-492 -740h586v-106h-719z" />
<glyph unicode="3" horiz-adv-x="897" d="M49 170l96 61q94 -141 267 -141q133 0 227 94.5t94 225.5t-90 224t-219 99h-225l395 588h-449v113h588v-101l-325 -487h4q182 0 309 -127t127 -308.5t-127 -308.5t-309 -127q-111 0 -207.5 52.5t-155.5 142.5z" />
<glyph unicode="4" horiz-adv-x="1009" d="M49 733l397 701h119l-319 -588h450v588h115v-588h150l-39 -113h-111v-733h-115v733h-647z" />
<glyph unicode="5" horiz-adv-x="897" d="M49 170l96 61q94 -141 267 -141q133 0 227 94.5t94 227.5t-94 227t-227 94h-295l73 701h543v-113h-442l-49 -475h170q182 0 309 -127t127 -308.5t-127 -308.5t-309 -127q-111 0 -207.5 52.5t-155.5 142.5z" />
<glyph unicode="6" horiz-adv-x="968" d="M49 412v532q0 170 103 318q55 76 157.5 124t239.5 48h72v-113h-80q-154 0 -266.5 -99.5t-112.5 -291.5v-250q43 78 130 122t191 44q182 0 309.5 -127t127.5 -308.5t-128 -308.5t-308.5 -127t-307.5 127.5t-127 309.5zM162 412q0 -135 93 -229.5t228 -94.5t229.5 94 t94.5 229.5t-94.5 228.5t-227.5 93t-226 -89t-97 -220v-12z" />
<glyph unicode="7" horiz-adv-x="905" d="M49 1321v113h807v-113l-653 -1321h-127l649 1321h-676z" />
<glyph unicode="8" horiz-adv-x="970" d="M49 412q0 125 63.5 227t170.5 158q-154 104 -154 295q0 150 104.5 255t255 105t255 -105.5t104.5 -254.5q0 -193 -158 -297q104 -57 168 -158.5t64 -224.5q0 -182 -127 -309.5t-309.5 -127.5t-309.5 127t-127 310zM164 411q0 -132 94 -226.5t227 -94.5t227.5 94.5 t94.5 226.5t-94.5 224t-241.5 98q-129 -6 -218 -98t-89 -224zM236 1093.5q0 -102.5 69.5 -173t171.5 -74.5q111 0 185.5 71.5t74.5 175t-73.5 177t-177 73.5t-177 -73.5t-73.5 -176z" />
<glyph unicode="9" horiz-adv-x="968" d="M49 1019q0 181 127 308t308.5 127t308.5 -127t127 -309v-529q0 -170 -105 -317q-53 -76 -155.5 -124t-239.5 -48h-72v113h80q154 0 266.5 99t112.5 292v219q-129 -139 -316.5 -139t-314.5 127t-127 308zM162 1018q0 -135 94 -228.5t229.5 -93.5t228.5 93.5t93 231.5 t-94.5 229t-228.5 91t-228 -94t-94 -229z" />
<glyph unicode=":" horiz-adv-x="233" d="M49 295q0 29 20.5 48t47 19t47 -19t20.5 -48t-20.5 -48.5t-47 -19.5t-47 19.5t-20.5 48.5zM49 788.5q0 26.5 20.5 47t47 20.5t47 -20.5t20.5 -47t-20.5 -47t-47 -20.5t-47 20.5t-20.5 47z" />
<glyph unicode=";" horiz-adv-x="313" d="M49 -115q92 53 119 95l10 14l-20 6q-37 27 -36 63.5t20.5 54t33.5 17.5t28.5 -1t36 -24.5t21.5 -54.5q0 -118 -131 -227zM125 561q0 29 19.5 48.5t48 19.5t48 -19.5t19.5 -48.5t-19.5 -48t-48 -19t-48 19t-19.5 48z" />
<glyph unicode="&#x3c;" horiz-adv-x="747" d="M49 733v2l569 570l80 -78l-493 -494l493 -491l-80 -78z" />
<glyph unicode="=" horiz-adv-x="753" d="M49 518v113h656v-113h-656zM49 733v113h656v-113h-656z" />
<glyph unicode="&#x3e;" horiz-adv-x="747" d="M49 242l494 491l-494 494l80 78l569 -570v-2l-569 -569z" />
<glyph unicode="?" horiz-adv-x="825" d="M49 1090q0 154 95.5 258t269.5 104q106 0 192 -55q168 -104 168 -297q0 -127 -76 -238q-39 -55 -94 -111.5t-85 -89t-53.5 -105.5t-25.5 -183v-129h-104v190q0 94 27.5 169t60.5 115t85 94t77 89q68 104 67.5 204t-73 169t-172 69t-172 -64.5t-72.5 -188.5h-115z M319 67.5q0 26.5 20.5 47t47.5 20.5t47.5 -20.5t20.5 -47t-20.5 -47t-47.5 -20.5t-47.5 20.5t-20.5 47z" />
<glyph unicode="@" horiz-adv-x="1447" d="M49 375v325q0 113 37 201t98 139q113 92 232 119t226.5 27t211.5 -29t170 -116t66 -224l75 -33v-100l-75 33v-531q-279 -75 -435 -75q-332 0 -354 307v207q0 227 180 295q70 27 152 26q150 0 336 -90q-12 119 -97.5 172t-197.5 53q-216 0 -350 -75q-160 -86 -160 -306 v-311q0 -145 72.5 -240.5t180 -133.5t245.5 -38q238 0 397.5 92.5t159.5 262.5v375q0 150 20 198q35 72 129 103l31 -78q-70 -31 -70 -144l2 -436q0 -129 -62.5 -227t-164.5 -152q-205 -106 -455 -106t-425 127t-175 383zM414 418q3 -205 256 -205q127 0 305 59v480 q-178 88 -354 88q-90 0 -148.5 -55.5t-58.5 -166.5v-200z" />
<glyph unicode="A" horiz-adv-x="1079" d="M25 0l458 1434h109l467 -1434h-123l-164 502h-467l-160 -502h-120zM338 614h403l-204 641z" />
<glyph unicode="B" horiz-adv-x="1114" d="M160 0v1434h452q168 0 264.5 -86t96.5 -267.5t-135 -273.5q-2 -2 -2 -4v-2q90 -41 150.5 -133.5t60.5 -248t-84 -276.5q-43 -66 -128 -104.5t-204 -38.5h-471zM274 109h353q297 0 297 327q0 143 -78 220t-184 77h-388v-624zM274 846h334q115 0 180.5 61.5t65.5 177.5 q0 240 -258 240h-322v-479z" />
<glyph unicode="C" horiz-adv-x="892" d="M135 375v657q0 156 44 236t134 135q92 51 234.5 51t275.5 -68l-32 -77q-117 43 -222 43q-319 0 -319 -301v-672q0 -268 260 -293q20 -4 43 -4q123 0 297 61l24 -96q-171 -67 -326 -67h-5q-33 0 -99.5 6t-141.5 46t-121 127t-46 216z" />
<glyph unicode="D" horiz-adv-x="1179" d="M160 0v1436h385q231 0 353 -127t122 -338v-561q0 -410 -434 -410h-426zM274 102h279q352 0 352 287v602q0 172 -102.5 256t-237.5 84h-291v-1229z" />
<glyph unicode="E" horiz-adv-x="952" d="M160 0v1434h684v-107h-570v-481h392l-39 -113h-353v-631h566v-102h-680z" />
<glyph unicode="F" horiz-adv-x="911" d="M160 0v1434h684v-109h-570v-479h351l-47 -113h-304v-733h-114z" />
<glyph unicode="G" horiz-adv-x="1099" d="M133 387v643q0 262 178 371q92 51 234.5 51t275.5 -68l-33 -77q-117 43 -221 43q-319 0 -319 -301v-666q0 -137 89 -215t227 -78t220 80t82 211v121h-135l-39 112h283v-614h-84l-29 84q-106 -104 -291.5 -104t-311.5 102t-126 305z" />
<glyph unicode="H" horiz-adv-x="1204" d="M160 0v1434h114v-588h652v588h114v-1434h-114v733h-652v-733h-114z" />
<glyph unicode="I" horiz-adv-x="540" d="M135 1333v101h252v-1434h-115v1329z" />
<glyph unicode="J" horiz-adv-x="401" d="M29 0q68 0 118 55.5t50 177.5v1096l-138 4v101h254v-1192q0 -152 -68.5 -235t-189.5 -83z" />
<glyph unicode="K" horiz-adv-x="972" d="M162 0v1436h114v-684l459 684h133l-419 -621l526 -815h-137l-463 707l-99 -156v-551h-114z" />
<glyph unicode="L" horiz-adv-x="901" d="M160 0v1434h114v-1332h625v-102h-739z" />
<glyph unicode="M" horiz-adv-x="1421" d="M160 0v1434h114l433 -1258l436 1258h114v-1434h-114v1096l-373 -1096h-125l-371 1096v-1096h-114z" />
<glyph unicode="N" horiz-adv-x="1331" d="M160 0v1434h114l779 -1223v1223h114v-1434h-114l-779 1223v-1223h-114z" />
<glyph unicode="O" horiz-adv-x="1124" d="M129 379v659q0 211 115.5 319.5t318.5 108.5t314.5 -114.5t111.5 -315.5v-657q0 -207 -126 -304.5t-302 -97.5t-304 97.5t-128 304.5zM244 381q0 -145 89 -220t227 -75t227.5 72.5t89.5 224.5v674q0 150 -87.5 225.5t-230.5 75.5t-229 -76t-86 -225v-676z" />
<glyph unicode="P" horiz-adv-x="1116" d="M160 0v1434h504q195 0 290 -119t95 -320q0 -72 -3.5 -122t-24 -126.5t-57 -125t-110.5 -84t-176 -35.5h-404v-502h-114zM274 614h406q74 0 125 30t75.5 67t39 104.5t14.5 179.5q0 166 -70.5 248t-191.5 82h-398v-711z" />
<glyph unicode="Q" horiz-adv-x="1124" d="M129 379v659q0 211 115.5 319.5t318.5 108.5t314.5 -114.5t111.5 -315.5v-657q0 -178 -93 -273.5t-237 -119.5q55 -68 209 -68h9v-111q-246 0 -332 170q-160 4 -283 93q-61 45 -97 124.5t-36 184.5zM244 381q0 -131 72.5 -206t191.5 -87q-8 49 -8 119v149h114v-147 q0 -84 7 -119q117 14 186.5 87t69.5 206v674q0 150 -87.5 225.5t-230.5 75.5t-229 -76t-86 -225v-676z" />
<glyph unicode="R" horiz-adv-x="1155" d="M160 0v1434h504q195 0 290 -119t95 -320q0 -96 -7.5 -163.5t-50.5 -156.5t-123 -132l183 -543h-117l-174 508q-37 -6 -82 -6h-404v-502h-114zM274 614h406q74 0 125 30t75.5 67t39 104.5t14.5 179.5q0 166 -70.5 248t-191.5 82h-398v-711z" />
<glyph unicode="S" horiz-adv-x="1148" d="M76 365h117q10 -109 109 -193t255 -84t262.5 70.5t106.5 224.5q0 94 -60.5 160.5t-150.5 101.5t-195.5 75t-196 79t-150.5 116.5t-60 186.5q0 143 118.5 247.5t341.5 104.5q170 0 299 -61q0 -4 -34 -109q-117 59 -267.5 59t-245 -65.5t-94.5 -189t162 -197.5 q72 -33 159 -61.5t175 -63.5t159.5 -79t117 -119.5t45.5 -174.5q0 -188 -120 -302t-356.5 -114t-364.5 118t-132 270z" />
<glyph unicode="T" horiz-adv-x="823" d="M0 1331v103h823v-103h-360v-1331h-115v1331h-348z" />
<glyph unicode="U" horiz-adv-x="1159" d="M152 381v1055h114v-1071q0 -125 91.5 -201t224.5 -76t225 76t92 201v1071h115v-1055q0 -109 -38 -188.5t-102.5 -122.5t-136 -63.5t-153.5 -20.5t-155 20.5t-137 63.5q-140 93 -140 311z" />
<glyph unicode="V" horiz-adv-x="1206" d="M160 1434h123l366 -1293l367 1293h123l-410 -1434h-158z" />
<glyph unicode="W" horiz-adv-x="1652" d="M160 1434h123l292 -1293l220 1293h159l220 -1293l288 1293h123l-334 -1434h-174l-203 1227l-202 -1227h-174z" />
<glyph unicode="X" horiz-adv-x="1286" d="M160 0l452 721l-413 713h129l352 -603l356 603h129l-415 -713l448 -721h-141l-377 602l-379 -602h-141z" />
<glyph unicode="Y" horiz-adv-x="1146" d="M123 928v506h115v-527q0 -143 98 -218t237.5 -75t229.5 51.5t112 153.5v615h117v-1115q0 -150 -56.5 -234.5t-158.5 -98.5l-26 75q125 47 124 250v291q-55 -49 -147 -74.5t-176 -25.5q-217 0 -343 107.5t-126 318.5z" />
<glyph unicode="Z" horiz-adv-x="1126" d="M63 0v102l840 1227h-813v105h959v-103l-840 -1227h852v-104h-998z" />
<glyph unicode="[" horiz-adv-x="653" d="M160 -233v1906h329v-92l-215 -20v-1682l215 -20v-92h-329z" />
<glyph unicode="\" horiz-adv-x="1007" d="M143 1673h117l664 -1906h-125z" />
<glyph unicode="]" horiz-adv-x="653" d="M160 -141l215 20v1682l-215 20v92h329v-1906h-329v92z" />
<glyph unicode="^" horiz-adv-x="821" d="M160 1552l303 289l291 -289l-78 -79l-215 213l-223 -213z" />
<glyph unicode="_" horiz-adv-x="722" d="M156 0h655v-113h-655v113z" />
<glyph unicode="`" horiz-adv-x="454" d="M94 1423q0 55 45 70q14 4 27 4q43 0 65 -47l105 -242h-90l-142 189q-10 12 -10 26z" />
<glyph unicode="a" horiz-adv-x="937" d="M76 346v170q0 203 141 272q74 35 145 35q242 0 388 -114q0 113 -66 179t-252 66l6 88q166 0 227.5 -30.5t94.5 -53t51 -59.5t31 -65q22 -49 22 -224v-610q-213 -20 -340 -20q-449 0 -448 366zM188 332q0 -252 342 -252q109 0 220 14v527q-170 82 -349 96q-12 2 -24 2 q-78 0 -133.5 -48t-55.5 -161v-178z" />
<glyph unicode="b" horiz-adv-x="983" d="M160 0v1434h114v-463q99 71 266 71h5q113 0 196 -38q174 -80 174 -295v-387q0 -203 -159 -285q-120 -61 -270 -61q-3 0 -6 -1q-147 0 -320 25zM274 98q115 -18 207 -18q322 0 322 239v383q0 106 -64 172t-202 66t-263 -70v-772z" />
<glyph unicode="c" horiz-adv-x="784" d="M74 369v262q0 145 57 243q98 170 324 170q135 0 274 -65l-33 -84q-117 45 -201.5 45t-150 -20.5t-111 -92t-45.5 -184.5v-297q1 -268 316 -268q92 0 205 26l24 -92q-131 -35 -237.5 -35t-208.5 33q-213 70 -213 359z" />
<glyph unicode="d" horiz-adv-x="983" d="M160 322v387q0 215 174 295q83 38 196 38q170 0 271 -71v463h114v-1434q-176 -25 -325.5 -25t-270.5 62q-160 82 -159 285zM272 319q0 -239 319 -239h3q92 0 207 18v772q-125 70 -263.5 70t-202 -65.5t-63.5 -172.5v-383z" />
<glyph unicode="e" horiz-adv-x="888" d="M72 274v420q0 166 103.5 258t273 92t265 -91t95.5 -253v-266l-623 -35v-125q0 -111 80 -159q62 -39 148 -39q141 0 299 84l45 -88q-158 -96 -330 -97q-356 0 -356 299zM186 512l508 25v178q0 88 -47 144t-98 71.5t-103 15.5q-113 0 -186.5 -61.5t-73.5 -192.5v-180z" />
<glyph unicode="f" horiz-adv-x="602" d="M160 0v1124q0 102 34.5 176t88.5 105q88 51 180 51q37 0 72 -8l-19 -100q-27 4 -51 4q-190 0 -191 -228v-98h234l-49 -108h-185v-918h-114z" />
<glyph unicode="g" horiz-adv-x="917" d="M76 360v306q0 180 105.5 279t289.5 99t270 -137l-8 119h115v-1157q0 -123 -51 -192.5t-168 -106.5l-31 88q135 51 135 213v254q-86 -150 -271.5 -150t-285.5 98.5t-100 286.5zM190 342q0 -129 73 -194.5t190.5 -65.5t198.5 70.5t81 201.5v334q0 127 -82 189.5 t-192.5 62.5t-189.5 -66.5t-79 -218.5v-313z" />
<glyph unicode="h" horiz-adv-x="1009" d="M131 0v1434h115v-463q101 73 271 73h5q111 0 191 -38q174 -80 174 -297v-709h-113v702q0 106 -63.5 172t-201.5 66t-263 -70v-870h-115z" />
<glyph unicode="i" horiz-adv-x="460" d="M160 1386.5q0 26.5 20.5 47t49 20.5t48 -20.5t19.5 -48t-20.5 -48t-48 -20.5t-48 21.5t-20.5 48zM170 0v1026h115v-1026h-115z" />
<glyph unicode="j" horiz-adv-x="395" d="M-14 -340q14 0 47 16q106 54 106 209v1028l-92 7l-47 106h254v-1180q-4 -119 -73.5 -196.5t-180.5 -77.5zM129 1386.5q0 26.5 20.5 47t48 20.5t48 -20.5t20.5 -48t-20.5 -48t-47 -20.5t-48 21.5t-21.5 48z" />
<glyph unicode="k" horiz-adv-x="888" d="M137 0v1434h115v-748l410 379l81 -80l-303 -264q140 -232 449 -721h-137l-394 649l-106 -92v-557h-115z" />
<glyph unicode="l" horiz-adv-x="438" d="M160 0v1434h114v-1434h-114z" />
<glyph unicode="m" horiz-adv-x="1505" d="M160 0v1026h114l-10 -65q140 80 284 80l2 -1q144 0 238 -96q174 98 325.5 98t238 -94t86.5 -239v-709h-113v702q0 92 -39 149.5t-94 72t-89 14.5t-76 -3t-112 -30l-75 -37q35 -70 34 -159v-709h-112v702q0 106 -56 171t-182.5 65t-249.5 -68v-870h-114z" />
<glyph unicode="n" horiz-adv-x="1024" d="M131 0v1026h115l-8 -70q104 88 292 88q106 0 183 -38q174 -80 174 -297v-709h-113v702q0 106 -63.5 172t-201.5 66t-263 -70v-870h-115z" />
<glyph unicode="o" d="M160 377v270q0 195 99 298.5t281.5 103.5t283 -108t100.5 -294v-270q0 -172 -94.5 -284.5t-285 -112.5t-287.5 113.5t-97 283.5zM274 356q0 -123 73 -198.5t199 -75.5t194.5 74.5t68.5 199.5v291q0 297 -264 297q-270 0 -271 -297v-291z" />
<glyph unicode="p" horiz-adv-x="999" d="M160 -430v1456h114l-10 -104q113 121 290 121l1 -1q178 0 277.5 -110.5t99.5 -286.5v-285q0 -186 -104.5 -285.5t-281.5 -99.5t-272 111v-471zM274 340q0 -133 76 -196.5t195 -63.5t195.5 66.5t76.5 193.5v313q0 150 -79 217.5t-188.5 67.5t-189 -66.5t-86.5 -207.5v-324 z" />
<glyph unicode="q" horiz-adv-x="917" d="M76 360v283q0 176 99 287.5t276.5 111.5t291.5 -124l-10 108h115v-1456l-115 45v471q-94 -111 -271 -111t-281.5 99.5t-104.5 285.5zM190 340q0 -127 77 -193.5t196 -66.5t194.5 63.5t75.5 196.5v324q-6 141 -86 207.5t-189.5 66.5t-188.5 -68.5t-79 -218.5v-311z" />
<glyph unicode="r" horiz-adv-x="681" d="M125 0v1026h115l-7 -72q96 88 254 88q70 0 150 -16l-31 -104q-78 20 -157.5 20t-144 -36t-64.5 -103v-803h-115z" />
<glyph unicode="s" horiz-adv-x="882" d="M74 260h108q12 -92 92 -138t175.5 -46t171 42t75.5 127t-58 132t-142 73.5t-170 56.5t-158 94.5t-72 167.5t83 192.5t270 89.5q66 0 123 -15.5t81 -29.5l25 -15l-39 -94q-74 53 -184.5 53t-177 -47t-66.5 -126t67.5 -123t154.5 -69.5t173 -58t145.5 -100.5t59.5 -180.5 t-91 -194.5t-266 -82t-275.5 84t-104.5 207z" />
<glyph unicode="t" horiz-adv-x="497" d="M90 270v1164h115v-408h246l-50 -108h-196v-648q0 -164 135 -209l-33 -88q-115 33 -166 105t-51 192z" />
<glyph unicode="u" horiz-adv-x="915" d="M74 352v674h114v-688q0 -131 73 -194.5t198 -63.5q264 0 264 258v688h115v-1026h-113l8 104q-49 -61 -123.5 -94t-150.5 -33q-385 0 -385 375z" />
<glyph unicode="v" horiz-adv-x="868" d="M37 1026h121l272 -907l275 907h120l-317 -1026h-158z" />
<glyph unicode="w" horiz-adv-x="1441" d="M37 1026h121l272 -907l232 907h116l226 -907l274 907h121l-318 -1026h-157l-207 829l-209 -829h-158z" />
<glyph unicode="x" horiz-adv-x="1001" d="M160 0l319 510l-319 516h129l258 -410l258 410h129l-322 -516l322 -510h-135l-252 403l-252 -403h-135z" />
<glyph unicode="y" horiz-adv-x="983" d="M76 360v666h110v-686q0 -131 72 -195.5t196 -64.5t201.5 63.5t77.5 196.5v403q0 150 21 199q35 72 129 102l30 -77q-70 -31 -69 -144v-948q0 -125 -49 -196.5t-166 -108.5l-31 88q137 51 137 213v229q-76 -125 -270 -125q-389 0 -389 385z" />
<glyph unicode="z" horiz-adv-x="978" d="M160 0v102l563 820h-545v104h690v-102l-567 -820h610v-104h-751z" />
<glyph unicode="{" horiz-adv-x="632" d="M160 725q49 39 98 102.5t49 118.5v215q0 172 18.5 265.5t62.5 148.5t136 108l37 -75q-139 -104 -139 -295v-379q0 -88 -119 -207q123 -123 123 -209v-385q0 -191 139 -295l-37 -76q-135 78 -176 175.5t-41 349.5v219q0 39 -32.5 89t-54 70.5t-64.5 59.5z" />
<glyph unicode="|" horiz-adv-x="438" d="M160 -233v1906h114v-1906h-114z" />
<glyph unicode="}" horiz-adv-x="632" d="M160 -162q139 104 139 295v385q0 86 123 209q-119 119 -119 207v379q0 190 -139 295l37 75q92 -53 136 -108t62.5 -148.5t18.5 -265.5v-215q0 -55 49 -118.5t98 -102.5q-43 -39 -64.5 -59.5t-54 -70.5t-32.5 -89v-219q0 -252 -41 -349.5t-176 -175.5z" />
<glyph unicode="~" horiz-adv-x="1056" d="M160 653q94 117 239 117q55 0 179.5 -35t181.5 -35q111 0 174 76l55 -78q-90 -117 -233 -116q-57 0 -242 57q-57 16 -113 16q-117 0 -188 -80z" />
<glyph unicode="&#xa1;" horiz-adv-x="460" d="M160 1386.5q0 26.5 20.5 47t47 20.5t47 -20.5t20.5 -47t-20.5 -47t-47 -20.5t-47 20.5t-20.5 47zM162 76l20 1132h97l18 -1134q0 -74 -67.5 -74t-67.5 76z" />
<glyph unicode="&#xa2;" horiz-adv-x="886" d="M160 369v262q0 186 90 289.5t237 119.5v236h113v-236q109 -12 215 -61l-33 -84q-100 37 -182 45v-862q88 0 195 26l24 -92q-117 -31 -219 -32v-213h-113v217q-39 4 -98 20q-121 41 -175 126t-54 239zM274 346q0 -221 213 -260v850q-98 -18 -155.5 -91t-57.5 -202v-297z " />
<glyph unicode="&#xa3;" horiz-adv-x="964" d="M160 0v102q104 53 168.5 149.5t64.5 209.5q0 59 -28 160h-158v112h121q-72 219 -72 322q0 178 111.5 287.5t268.5 109.5t238 -51l-36 -101q-84 47 -197 47.5t-192.5 -80.5t-79.5 -216q0 -68 82 -318h411v-112h-377q25 -94 25 -179.5t-48 -182.5t-128 -146h563v-113h-737z " />
<glyph unicode="&#xa4;" horiz-adv-x="946" d="M159.5 660q0.5 120 69.5 217l-63 67l67 68l64 -66q98 76 221 76t217 -72l66 64l69 -72l-63 -63q72 -98 72 -219t-76 -220l67 -67l-65 -66l-68 68q-98 -72 -222 -72t-216 74l-68 -72l-65 68l65 69q-72 98 -71.5 218zM266 662.5q0 -103.5 74 -175t177.5 -71.5t177 71.5 t73.5 175t-73.5 177t-177 73.5t-177.5 -73.5t-74 -177z" />
<glyph unicode="&#xa5;" horiz-adv-x="1193" d="M160 1434h129l344 -588h16l348 588h129l-342 -588h189v-113h-254l-19 -33v-69h273v-113h-273v-518h-114v518h-269v113h269v65l-23 37h-246v113h181z" />
<glyph unicode="&#xa7;" horiz-adv-x="1200" d="M160 -16h116q10 -109 109.5 -193t255.5 -84t262.5 70.5t106.5 224.5q0 94 -60.5 160.5t-150.5 101.5t-195.5 75t-196 79t-150.5 116.5t-60 185t65 191.5q-66 82 -65 195q0 143 118.5 247.5t341.5 104.5q170 0 299 -61q0 -4 -34 -109q-117 59 -267.5 59.5t-245 -65 t-94.5 -189.5t162 -198q72 -33 159 -61.5t175 -63.5t159.5 -79t117 -119.5t45.5 -185.5t-48 -198q47 -72 48 -176q0 -188 -120 -301.5t-356.5 -113.5t-364.5 117.5t-132 269.5zM315 705q0 -78 76 -140.5t174 -93.5q307 -92 430 -184q14 53 15 100q0 100 -73 171t-167 101 q-319 111 -420 177q-35 -53 -35 -131z" />
<glyph unicode="&#xa8;" horiz-adv-x="454" d="M0 1427.5q0 26.5 20.5 47t47 20.5t47 -20.5t20.5 -47t-20.5 -47t-47 -20.5t-47 20.5t-20.5 47zM319 1427.5q0 26.5 20.5 47t47.5 20.5t47.5 -20.5t20.5 -47t-20.5 -47t-47.5 -20.5t-47.5 20.5t-20.5 47z" />
<glyph unicode="&#xa9;" horiz-adv-x="1638" d="M51 508q0 326 223.5 545t546 219t543.5 -219t221 -545t-223 -547t-541.5 -221t-544 221t-225.5 547zM172 507q0 -286 187.5 -470t460 -184t459.5 185t187 463.5t-189.5 468t-458.5 189.5t-457.5 -183t-188.5 -469zM391 500.5q0 201.5 117 340t317 138.5q150 0 262.5 -88 t137.5 -229h-129q-16 82 -92 139t-177 57q-156 0 -232.5 -100.5t-76.5 -251t80 -252.5t231 -102q102 0 177.5 58t89.5 148h131q-33 -147 -143.5 -236t-254.5 -89q-203 0 -320.5 133t-117.5 334.5z" />
<glyph unicode="&#xaa;" horiz-adv-x="778" d="M160 1063q0 168 127 215q37 14 80 14q102 0 237 -80q0 66 -56 109t-183 43l6 88q201 0 270.5 -77t69.5 -238v-336q-141 -23 -205 -23t-126.5 6.5t-109.5 35t-78.5 90t-31.5 153.5zM256 1051q0 -123 100 -162q103 -42 248 2v221q-150 84 -235 84q-113 0 -113 -145z" />
<glyph unicode="&#xab;" horiz-adv-x="999" d="M86 547v2l383 383l76 -78l-307 -307l303 -314l-72 -69zM537 547v2l383 383l75 -78l-307 -307l303 -314l-71 -69z" />
<glyph unicode="&#xad;" horiz-adv-x="839" d="M92 733v113h656v-113h-656z" />
<glyph unicode="&#xae;" horiz-adv-x="1638" d="M51 508q0 326 223.5 545t546 219t543.5 -219t221 -545t-223 -547t-541.5 -221t-544 221t-225.5 547zM172 507q0 -286 187.5 -470t460 -184t459.5 185t187 463.5t-189.5 468t-458.5 189.5t-457.5 -183t-188.5 -469zM541 80v895h327q154 0 234 -69.5t80 -181.5t-64.5 -172 t-171.5 -73l256 -399h-137l-244 389h-166v-389h-114zM655 578h152q193 0 237 65q20 31 21 82q0 80 -65.5 112.5t-153.5 32.5h-191v-292z" />
<glyph unicode="&#xaf;" horiz-adv-x="679" d="M160 1268v118h452v-118h-452z" />
<glyph unicode="&#xb0;" horiz-adv-x="817" d="M160 1157q0 123 86 209t209 86t209 -86t86 -209t-86 -209t-209 -86t-209 86t-86 209zM262 1157q0 -76 53.5 -134t139.5 -58t139 58t53 134t-53 134.5t-139 58.5t-139.5 -58.5t-53.5 -134.5z" />
<glyph unicode="&#xb1;" horiz-adv-x="882" d="M160 485v113h272v135h-272v113h272v270h113v-270h270v-113h-270v-135h270v-113h-655z" />
<glyph unicode="&#xb4;" horiz-adv-x="454" d="M94 1204l105 242q23 47 65 47q72 0 72 -73q0 -15 -10 -27l-142 -189h-90z" />
<glyph unicode="&#xb5;" horiz-adv-x="978" d="M76 -412v1438h117v-811q49 -49 145 -91t188 -42q211 0 211 231v707l117 24v-903q6 -57 55 -86l-55 -67q-53 0 -90 63q-76 -76 -230.5 -76t-308.5 84q-29 16 -32 19v-508z" />
<glyph unicode="&#xb6;" horiz-adv-x="1370" d="M160 1073q0 205 94 334t287 129h762v-1944h-115v1838l-139 2v-1838h-115v910h-412q-137 0 -209 53q-37 29 -64.5 58.5t-42.5 78.5q-35 109 -40.5 193t-5.5 186z" />
<glyph unicode="&#xb8;" horiz-adv-x="509" d="M156 -391l49 108q76 -51 143 -51q143 0 144 86q0 45 -41 66q-18 8 -47 8t-70 -14l-70 -29l-35 57l125 160h86l-82 -109q18 12 81 12.5t111 -39.5t48 -125t-76 -127t-168 -42t-198 39z" />
<glyph unicode="&#xbb;" horiz-adv-x="1048" d="M6 854l76 78l383 -383v-2l-383 -383l-72 69l303 314zM457 854l75 78l383 -383v-2l-383 -383l-71 69l303 314z" />
<glyph unicode="&#xbf;" horiz-adv-x="954" d="M162 352q0 127 76 238q39 55 94 111.5t84.5 89t53.5 105.5t26 183v129h104v-190q0 -94 -27.5 -169t-60.5 -115t-85 -94t-77 -89q-68 -104 -67.5 -204t73 -169t172 -69t172 64t72.5 189h115q0 -154 -95.5 -258t-269.5 -104q-106 0 -192 53q-168 106 -168 299zM481 1384.5 q0 28.5 19.5 48t48.5 19.5t48 -19.5t19 -48t-19 -48t-48 -19.5t-48.5 19.5t-19.5 48z" />
<glyph unicode="&#xc0;" horiz-adv-x="1079" d="M25 0l458 1434h109l467 -1434h-123l-164 502h-467l-160 -502h-120zM319 1716q0 55 46 70q14 4 26 4q43 0 66 -47l104 -242h-90l-141 189q-10 12 -11 26zM338 614h403l-204 641z" />
<glyph unicode="&#xc1;" horiz-adv-x="1079" d="M25 0l458 1434h109l467 -1434h-123l-164 502h-467l-160 -502h-120zM338 614h403l-204 641zM496 1497l104 242q23 47 66 47q71 0 71 -74q0 -14 -10 -26l-141 -189h-90z" />
<glyph unicode="&#xc2;" horiz-adv-x="1079" d="M25 0l458 1434h109l467 -1434h-123l-164 502h-467l-160 -502h-120zM242 1581l303 289l291 -289l-78 -80l-215 213l-224 -213zM338 614h403l-204 641z" />
<glyph unicode="&#xc3;" horiz-adv-x="1079" d="M25 0l458 1434h109l467 -1434h-123l-164 502h-467l-160 -502h-120zM197 1583q96 109 204 109q37 0 83 -18.5t98.5 -42t103.5 -23.5q80 0 143 71l52 -80q-92 -109 -197 -108q-37 0 -83 19.5t-97 43t-103 23.5q-84 0 -153 -74zM338 614h403l-204 641z" />
<glyph unicode="&#xc4;" horiz-adv-x="1079" d="M25 0l458 1434h109l467 -1434h-123l-164 502h-467l-160 -502h-120zM309 1564.5q0 28.5 19.5 48t48.5 19.5t48 -19.5t19 -48t-19 -48t-48 -19.5t-48.5 19.5t-19.5 48zM338 614h403l-204 641zM629 1564.5q0 28.5 19.5 48t48 19.5t48 -19.5t19.5 -48t-19.5 -48t-48 -19.5 t-48 19.5t-19.5 48z" />
<glyph unicode="&#xc5;" horiz-adv-x="1079" d="M25 0l434 1360q-68 25 -110 84t-42 143t67.5 152.5t164 68.5t164 -68.5t67.5 -152.5t-43 -144.5t-111 -82.5l443 -1360h-123l-164 502h-467l-160 -502h-120zM338 614h403l-204 641zM399 1577q0 -57 40 -98t99.5 -41t99.5 41t40 98t-40 98t-99.5 41t-99.5 -41t-40 -98z " />
<glyph unicode="&#xc6;" horiz-adv-x="1662" d="M160 0l749 1434h686v-107h-569v-481h391l-39 -113h-352v-631h565v-102h-682l2 502h-368l-262 -502h-121zM600 614h311v594z" />
<glyph unicode="&#xc7;" horiz-adv-x="892" d="M135 375v657q0 156 44 236t134 135q92 51 234.5 51t275.5 -68l-32 -77q-117 43 -222 43q-319 0 -319 -301v-672q0 -268 260 -293q20 -4 43 -4q123 0 297 61l24 -96q-168 -63 -329 -67l-66 -89q18 12 81 12.5t111 -39.5t48 -125t-76 -127t-168 -42t-199 39l50 108 q76 -51 141 -51q145 0 145 86q0 45 -43 66q-16 8 -44.5 8t-69.5 -14l-70 -29l-35 57l111 144q-147 16 -236.5 110t-89.5 281z" />
<glyph unicode="&#xc8;" horiz-adv-x="952" d="M160 0v1434h684v-107h-570v-481h392l-39 -113h-353v-631h566v-102h-680zM307 1714q0 55 45 70q14 4 27 4q43 0 65 -47l105 -242h-90l-142 189q-10 12 -10 26z" />
<glyph unicode="&#xc9;" horiz-adv-x="952" d="M160 0v1434h684v-107h-570v-481h392l-39 -113h-353v-631h566v-102h-680zM485 1495l105 242q23 47 65 47q72 0 72 -74q0 -14 -10 -27l-142 -188h-90z" />
<glyph unicode="&#xca;" horiz-adv-x="952" d="M160 0v1434h684v-107h-570v-481h392l-39 -113h-353v-631h566v-102h-680zM207 1581l303 289l291 -289l-78 -80l-215 213l-223 -213z" />
<glyph unicode="&#xcb;" horiz-adv-x="952" d="M160 0v1434h684v-107h-570v-481h392l-39 -113h-353v-631h566v-102h-680zM268 1564.5q0 28.5 19.5 48t48.5 19.5t48 -19.5t19 -48t-19 -48t-48 -19.5t-48.5 19.5t-19.5 48zM588 1564.5q0 28.5 19.5 48t48 19.5t48 -19.5t19.5 -48t-19.5 -48t-48 -19.5t-48 19.5t-19.5 48z " />
<glyph unicode="&#xcc;" horiz-adv-x="593" d="M160 1714q0 55 45 70q14 4 26 4q43 0 66 -47l104 -242h-90l-141 189q-10 12 -10 26zM178 1333v101h252v-1434h-115v1329z" />
<glyph unicode="&#xcd;" horiz-adv-x="716" d="M160 1333v101h252v-1434h-115v1329zM311 1495l105 242q23 47 65 47q72 0 72 -74q0 -14 -10 -27l-142 -188h-90z" />
<glyph unicode="&#xce;" horiz-adv-x="917" d="M160 1581l303 289l291 -289l-78 -80l-215 213l-223 -213zM287 1333v101h252v-1434h-115v1329z" />
<glyph unicode="&#xcf;" horiz-adv-x="778" d="M160 1560.5q0 28.5 20.5 48t47 19.5t47 -19.5t20.5 -48t-20.5 -48t-47 -19.5t-47 19.5t-20.5 48zM211 1333v101h252v-1434h-115v1329zM479 1560.5q0 28.5 20.5 48t47 19.5t47 -19.5t20.5 -48t-20.5 -48t-47 -19.5t-47 19.5t-20.5 48z" />
<glyph unicode="&#xd0;" horiz-adv-x="1306" d="M160 989v113h100v334h385q190 0 308 -90.5t153 -243.5h133v-113h-119v-579q0 -410 -434 -410h-426v989h-100zM375 102h278q353 0 353 287v600h-631v-887zM375 1102h616q-33 115 -126 172t-199 57h-291v-229z" />
<glyph unicode="&#xd1;" horiz-adv-x="1331" d="M160 0v1434h114l779 -1223v1223h114v-1434h-114l-779 1223v-1223h-114zM324 1583q96 109 204 109q37 0 83 -18.5t98.5 -42t103.5 -23.5q80 0 143 71l52 -80q-92 -109 -197 -108q-37 0 -83 19.5t-97 43t-103 23.5q-84 0 -153 -74z" />
<glyph unicode="&#xd2;" horiz-adv-x="1124" d="M129 379v659q0 211 115.5 319.5t318.5 108.5t314.5 -114.5t111.5 -315.5v-657q0 -207 -126 -304.5t-302 -97.5t-304 97.5t-128 304.5zM244 381q0 -145 89 -220t227 -75t227.5 72.5t89.5 224.5v674q0 150 -87.5 225.5t-230.5 75.5t-229 -76t-86 -225v-676zM352 1714 q0 55 45 70q14 4 27 4q43 0 65 -47l105 -242h-90l-142 189q-10 12 -10 26z" />
<glyph unicode="&#xd3;" horiz-adv-x="1124" d="M129 379v659q0 211 115.5 319.5t318.5 108.5t314.5 -114.5t111.5 -315.5v-657q0 -207 -126 -304.5t-302 -97.5t-304 97.5t-128 304.5zM244 381q0 -145 89 -220t227 -75t227.5 72.5t89.5 224.5v674q0 150 -87.5 225.5t-230.5 75.5t-229 -76t-86 -225v-676zM526 1495 l105 242q23 47 65 47q72 0 72 -74q0 -14 -10 -27l-142 -188h-90z" />
<glyph unicode="&#xd4;" horiz-adv-x="1124" d="M129 379v659q0 211 115.5 319.5t318.5 108.5t314.5 -114.5t111.5 -315.5v-657q0 -207 -126 -304.5t-302 -97.5t-304 97.5t-128 304.5zM244 381q0 -145 89 -220t227 -75t227.5 72.5t89.5 224.5v674q0 150 -87.5 225.5t-230.5 75.5t-229 -76t-86 -225v-676zM270 1581 l303 289l291 -289l-78 -80l-215 213l-223 -213z" />
<glyph unicode="&#xd5;" horiz-adv-x="1124" d="M129 379v659q0 211 115.5 319.5t318.5 108.5t314.5 -114.5t111.5 -315.5v-657q0 -207 -126 -304.5t-302 -97.5t-304 97.5t-128 304.5zM227 1583q96 109 205 109q37 0 83 -18.5t98.5 -42t103.5 -23.5q80 0 143 71l51 -80q-92 -109 -196 -108q-37 0 -83 19.5t-97.5 43 t-102.5 23.5q-84 0 -153 -74zM244 381q0 -145 89 -220t227 -75t227.5 72.5t89.5 224.5v674q0 150 -87.5 225.5t-230.5 75.5t-229 -76t-86 -225v-676z" />
<glyph unicode="&#xd6;" horiz-adv-x="1124" d="M129 379v659q0 211 115.5 319.5t318.5 108.5t314.5 -114.5t111.5 -315.5v-657q0 -207 -126 -304.5t-302 -97.5t-304 97.5t-128 304.5zM244 381q0 -145 89 -220t227 -75t227.5 72.5t89.5 224.5v674q0 150 -87.5 225.5t-230.5 75.5t-229 -76t-86 -225v-676zM328 1564.5 q0 28.5 20.5 48t47 19.5t47 -19.5t20.5 -48t-20.5 -48t-47 -19.5t-47 19.5t-20.5 48zM647 1564.5q0 28.5 20.5 48t47 19.5t47 -19.5t20.5 -48t-20.5 -48t-47 -19.5t-47 19.5t-20.5 48z" />
<glyph unicode="&#xd7;" horiz-adv-x="808" d="M160 420l217 262l-217 264l84 72l207 -250l206 250l84 -72l-219 -264l219 -262l-86 -76l-204 250l-205 -250z" />
<glyph unicode="&#xd8;" horiz-adv-x="1087" d="M160 379v659q0 211 115.5 319.5t318.5 108.5q102 0 190 -32l84 239h117l-102 -299q137 -113 137 -338v-657q0 -207 -126 -304.5t-302 -97.5q-100 0 -180 29l-82 -239h-125l102 292q-147 109 -147 320zM274 381q0 -129 72 -205l402 1151q-68 31 -158 31q-143 0 -229.5 -76 t-86.5 -225v-676zM446 111q63 -25 144 -25q139 0 228 72.5t89 224.5v674q0 125 -65 200z" />
<glyph unicode="&#xd9;" horiz-adv-x="1159" d="M152 381v1055h114v-1071q0 -125 91.5 -201t224.5 -76t225 76t92 201v1071h115v-1055q0 -109 -38 -188.5t-102.5 -122.5t-136 -63.5t-153.5 -20.5t-155 20.5t-137 63.5q-140 93 -140 311zM385 1714q0 55 45 70q14 4 27 4q43 0 65 -47l105 -242h-90l-142 189q-10 12 -10 26 z" />
<glyph unicode="&#xda;" horiz-adv-x="1159" d="M152 381v1055h114v-1071q0 -125 91.5 -201t224.5 -76t225 76t92 201v1071h115v-1055q0 -109 -38 -188.5t-102.5 -122.5t-136 -63.5t-153.5 -20.5t-155 20.5t-137 63.5q-140 93 -140 311zM537 1497l104 242q23 47 66 47q71 0 71 -74q0 -14 -10 -26l-141 -189h-90z" />
<glyph unicode="&#xdb;" horiz-adv-x="1159" d="M152 381v1055h114v-1071q0 -125 91.5 -201t224.5 -76t225 76t92 201v1071h115v-1055q0 -109 -38 -188.5t-102.5 -122.5t-136 -63.5t-153.5 -20.5t-155 20.5t-137 63.5q-140 93 -140 311zM289 1581l303 289l291 -289l-78 -80l-215 213l-223 -213z" />
<glyph unicode="&#xdc;" horiz-adv-x="1159" d="M152 381v1055h114v-1071q0 -125 91.5 -201t224.5 -76t225 76t92 201v1071h115v-1055q0 -109 -38 -188.5t-102.5 -122.5t-136 -63.5t-153.5 -20.5t-155 20.5t-137 63.5q-140 93 -140 311zM352 1564.5q0 28.5 20.5 48t47 19.5t47 -19.5t20.5 -48t-20.5 -48t-47 -19.5 t-47 19.5t-20.5 48zM672 1564.5q0 28.5 20.5 48t47 19.5t47 -19.5t20.5 -48t-20.5 -48t-47 -19.5t-47 19.5t-20.5 48z" />
<glyph unicode="&#xdd;" horiz-adv-x="1146" d="M123 928v506h115v-527q0 -143 98 -218t237.5 -75t229.5 51.5t112 153.5v615h117v-1115q0 -150 -56.5 -234.5t-158.5 -98.5l-26 75q125 47 124 250v291q-55 -49 -147 -74.5t-176 -25.5q-217 0 -343 107.5t-126 318.5zM537 1497l104 242q23 47 66 47q71 0 71 -74 q0 -14 -10 -26l-141 -189h-90z" />
<glyph unicode="&#xde;" horiz-adv-x="999" d="M160 0v1434h114v-502q109 111 284 110.5t274.5 -111t99.5 -294.5t-105.5 -291.5t-275.5 -107.5q-76 0 -156 37.5t-121 103.5v-379h-114zM274 664q0 -158 76 -237t197 -79t195.5 74t74.5 227.5t-79 221t-188.5 67.5t-189.5 -66.5t-86 -207.5z" />
<glyph unicode="&#xdf;" horiz-adv-x="1046" d="M160 0v1100q0 157 70.5 246.5t203.5 89.5t200.5 -85t67.5 -196t-75 -178h-62q-57 -95 69 -210q46 -42 105.5 -93.5t106.5 -102.5q131 -139 131 -282q0 -70 -29 -139q-45 -104 -160 -146q-74 -27 -133 -27q-186 0 -303 99l60 98q86 -84 229.5 -84t192.5 103q25 51 24 102 q0 102 -86 189.5t-158 148.5q-131 109 -168 194q-14 39 -14 94.5t35 116.5q84 0 111 72q12 29 12 64.5t-25 78.5q-39 72 -119 72q-170 0 -170 -217v-1108h-116z" />
<glyph unicode="&#xe0;" horiz-adv-x="1015" d="M160 346v170q0 203 141 272q74 35 145 35q242 0 388 -114q0 113 -66 179t-252 66l6 88q166 0 227.5 -30.5t94.5 -53t51 -59.5t31 -65q22 -49 22 -224v-610q-213 -20 -340 -20q-449 0 -448 366zM272 332q0 -252 342 -252q109 0 220 14v527q-170 82 -347 96q-14 2 -26 2 q-78 0 -133.5 -48t-55.5 -161v-178zM352 1321q0 55 45 70q14 4 27 4q43 0 65 -47l105 -242h-90l-142 188q-10 12 -10 27z" />
<glyph unicode="&#xe1;" horiz-adv-x="1015" d="M160 346v170q0 203 141 272q74 35 145 35q242 0 388 -114q0 113 -66 179t-252 66l6 88q166 0 227.5 -30.5t94.5 -53t51 -59.5t31 -65q22 -49 22 -224v-610q-213 -20 -340 -20q-449 0 -448 366zM272 332q0 -252 342 -252q109 0 220 14v527q-170 82 -347 96q-14 2 -26 2 q-78 0 -133.5 -48t-55.5 -161v-178zM528 1102l105 241q23 47 65 48q72 0 72 -74q0 -14 -10 -27l-142 -188h-90z" />
<glyph unicode="&#xe2;" horiz-adv-x="1015" d="M160 346v170q0 203 141 272q74 35 145 35q242 0 388 -114q0 113 -66 179t-252 66l6 88q166 0 227.5 -30.5t94.5 -53t51 -59.5t31 -65q22 -49 22 -224v-610q-213 -20 -340 -20q-449 0 -448 366zM272 332q0 -252 342 -252q109 0 220 14v527q-170 82 -347 96q-14 2 -26 2 q-78 0 -133.5 -48t-55.5 -161v-178zM274 1186l304 289l290 -289l-77 -80l-216 213l-223 -213z" />
<glyph unicode="&#xe3;" horiz-adv-x="1015" d="M160 346v170q0 203 141 272q74 35 145 35q242 0 388 -114q0 113 -66 179t-252 66l6 88q166 0 227.5 -30.5t94.5 -53t51 -59.5t31 -65q22 -49 22 -224v-610q-213 -20 -340 -20q-449 0 -448 366zM211 1198q96 109 205 109q47 0 181 -61q52 -23 103 -23q80 0 144 71l51 -80 q-92 -109 -197 -108q-37 0 -83 19.5t-97 43t-102 23.5q-84 0 -154 -74zM272 332q0 -252 342 -252q109 0 220 14v527q-170 82 -347 96q-14 2 -26 2q-78 0 -133.5 -48t-55.5 -161v-178z" />
<glyph unicode="&#xe4;" horiz-adv-x="1015" d="M160 346v170q0 203 141 272q74 35 145 35q242 0 388 -114q0 113 -66 179t-252 66l6 88q166 0 227.5 -30.5t94.5 -53t51 -59.5t31 -65q22 -49 22 -224v-610q-213 -20 -340 -20q-449 0 -448 366zM272 332q0 -252 342 -252q109 0 220 14v527q-170 82 -347 96q-14 2 -26 2 q-78 0 -133.5 -48t-55.5 -161v-178zM348 1171.5q0 28.5 20.5 48t47 19.5t47 -19.5t20.5 -48t-20.5 -48t-47 -19.5t-47 19.5t-20.5 48zM668 1171.5q0 28.5 20.5 48t47 19.5t47 -19.5t20.5 -48t-20.5 -48t-47 -19.5t-47 19.5t-20.5 48z" />
<glyph unicode="&#xe5;" horiz-adv-x="1015" d="M160 346v170q0 203 141 272q74 35 145 35q242 0 388 -114q0 109 -61.5 175t-237.5 70h-19q-90 8 -151.5 75t-61.5 160t67.5 160.5t164 67.5t164 -67.5t67.5 -162.5t-68 -163q127 -31 176 -98q27 -37 44 -68q30 -57 30 -248v-610q-213 -20 -340 -20q-449 0 -448 366z M272 332q0 -252 342 -252q109 0 220 14v527q-170 82 -347 96q-14 2 -26 2q-78 0 -133.5 -48t-55.5 -161v-178zM395 1185.5q0 -59.5 40 -99t99.5 -39.5t99.5 39.5t40 99t-40 99.5t-99.5 40t-99.5 -40t-40 -99.5z" />
<glyph unicode="&#xe6;" horiz-adv-x="1640" d="M160 346v170q0 203 141 272q74 35 145 35q242 0 388 -114q0 113 -66 179t-252 66l6 88q279 0 371 -141q102 143 319 143q170 0 265.5 -91t95.5 -253v-266l-623 -35v-125q0 -111 80 -159q62 -39 148 -39q141 0 299 84l45 -88q-160 -96 -357 -97q-133 0 -217 56v-31 q-213 -20 -340 -20q-449 0 -448 366zM272 332q0 -252 342 -252q109 0 220 14v527q-170 82 -347 96q-14 2 -26 2q-78 0 -133.5 -48t-55.5 -161v-178zM950 512l508 25v178q0 88 -47 144t-98 71.5t-103 15.5q-113 0 -186.5 -61.5t-73.5 -192.5v-180z" />
<glyph unicode="&#xe7;" horiz-adv-x="784" d="M74 369v262q0 145 57 243q98 170 324 170q135 0 274 -65l-33 -84q-117 45 -201.5 45t-150 -20.5t-111 -92t-45.5 -184.5v-297q1 -268 316 -268q92 0 205 26l24 -92q-135 -35 -248 -35q-23 0 -45 3l-67 -89q18 12 80.5 12.5t110.5 -39.5t48 -125t-75.5 -127t-168 -42 t-198.5 39l49 108q76 -51 141 -51q145 0 146 86q0 45 -43 66q-16 8 -45 8t-70 -14l-69 -29l-35 57l116 150q-37 6 -57 14q-121 41 -175 126t-54 239z" />
<glyph unicode="&#xe8;" horiz-adv-x="964" d="M160 274v420q0 166 103.5 258t273.5 92t265 -91t95 -253v-266l-623 -35v-125q0 -111 80 -159q62 -39 148 -39q141 0 299 84l45 -88q-158 -96 -330 -97q-356 0 -356 299zM274 512l508 25v178q0 88 -47 144t-98 71.5t-102 15.5q-113 0 -187 -61.5t-74 -192.5v-180z M336 1321q0 55 45 70q14 4 27 4q43 0 65 -47l105 -242h-91l-141 188q-10 12 -10 27z" />
<glyph unicode="&#xe9;" horiz-adv-x="964" d="M160 274v420q0 166 103.5 258t273.5 92t265 -91t95 -253v-266l-623 -35v-125q0 -111 80 -159q62 -39 148 -39q141 0 299 84l45 -88q-158 -96 -330 -97q-356 0 -356 299zM274 512l508 25v178q0 88 -47 144t-98 71.5t-102 15.5q-113 0 -187 -61.5t-74 -192.5v-180z M492 1102l104 241q23 47 66 48q71 0 71 -74q0 -14 -10 -27l-141 -188h-90z" />
<glyph unicode="&#xea;" horiz-adv-x="964" d="M160 274v420q0 166 103.5 258t273.5 92t265 -91t95 -253v-266l-623 -35v-125q0 -111 80 -159q62 -39 148 -39q141 0 299 84l45 -88q-158 -96 -330 -97q-356 0 -356 299zM264 1186l303 289l291 -289l-78 -80l-215 213l-223 -213zM274 512l508 25v178q0 88 -47 144 t-98 71.5t-102 15.5q-113 0 -187 -61.5t-74 -192.5v-180z" />
<glyph unicode="&#xeb;" horiz-adv-x="1099" d="M72 274v420q0 166 103.5 258t273 92t265 -91t95.5 -253v-266l-623 -35v-125q0 -111 80 -159q62 -39 148 -39q141 0 299 84l45 -88q-158 -96 -330 -97q-356 0 -356 299zM186 512l508 25v178q0 88 -47 144t-98 71.5t-103 15.5q-113 0 -186.5 -61.5t-73.5 -192.5v-180z M215 1171.5q0 28.5 19.5 48t48 19.5t48 -19.5t19.5 -48t-19.5 -48t-48 -19.5t-48 19.5t-19.5 48zM535 1171.5q0 28.5 19 48t48 19.5t48.5 -19.5t19.5 -48t-19.5 -48t-48.5 -19.5t-48 19.5t-19 48z" />
<glyph unicode="&#xec;" horiz-adv-x="501" d="M160 1321q0 55 45 70q14 4 26 4q43 0 66 -47l104 -242h-90l-141 188q-10 12 -10 27zM319 0v1026h115v-1026h-115z" />
<glyph unicode="&#xed;" horiz-adv-x="485" d="M160 0v1026h114v-1026h-114zM176 1102l105 241q23 47 65 48q72 0 72 -74q0 -14 -10 -27l-142 -188h-90z" />
<glyph unicode="&#xee;" horiz-adv-x="456" d="M-74 1186l303 289l291 -289l-78 -80l-215 213l-223 -213zM170 0v1026h115v-1026h-115z" />
<glyph unicode="&#xef;" horiz-adv-x="681" d="M160 1171.5q0 28.5 20.5 48t47 19.5t47 -19.5t20.5 -48t-20.5 -48t-47 -19.5t-47 19.5t-20.5 48zM332 0v1026h114v-1026h-114zM479 1171.5q0 28.5 20.5 48t47 19.5t47 -19.5t20.5 -48t-20.5 -48t-47 -19.5t-47 19.5t-20.5 48z" />
<glyph unicode="&#xf1;" horiz-adv-x="983" d="M160 0v1026h114l-8 -70q104 88 293 88q106 0 182 -38q174 -80 174 -297v-709h-112v702q0 106 -64 172t-202 66t-263 -70v-870h-114zM188 1198q96 109 205 109q37 0 83 -18.5t98.5 -42t103.5 -23.5q80 0 143 71l51 -80q-92 -109 -196 -108q-37 0 -83 19.5t-97.5 43 t-102.5 23.5q-84 0 -153 -74z" />
<glyph unicode="&#xf2;" d="M160 377v270q0 195 99 298.5t281.5 103.5t283 -108t100.5 -294v-270q0 -172 -94.5 -284.5t-285 -112.5t-287.5 113.5t-97 283.5zM274 356q0 -123 73 -198.5t199 -75.5t194.5 74.5t68.5 199.5v291q0 297 -264 297q-270 0 -271 -297v-291zM334 1321q0 55 45 70q14 4 27 4 q43 0 65 -47l104 -242h-90l-141 188q-10 12 -10 27z" />
<glyph unicode="&#xf3;" d="M160 377v270q0 195 99 298.5t281.5 103.5t283 -108t100.5 -294v-270q0 -172 -94.5 -284.5t-285 -112.5t-287.5 113.5t-97 283.5zM274 356q0 -123 73 -198.5t199 -75.5t194.5 74.5t68.5 199.5v291q0 297 -264 297q-270 0 -271 -297v-291zM489 1102l105 241q23 47 65 48 q72 0 72 -74q0 -14 -10 -27l-141 -188h-91z" />
<glyph unicode="&#xf4;" d="M160 377v270q0 195 99 298.5t281.5 103.5t283 -108t100.5 -294v-270q0 -172 -94.5 -284.5t-285 -112.5t-287.5 113.5t-97 283.5zM252 1186l303 289l291 -289l-78 -80l-215 213l-223 -213zM274 356q0 -123 73 -198.5t199 -75.5t194.5 74.5t68.5 199.5v291q0 297 -264 297 q-270 0 -271 -297v-291z" />
<glyph unicode="&#xf5;" d="M160 377v270q0 195 99 298.5t281.5 103.5t283 -108t100.5 -294v-270q0 -172 -94.5 -284.5t-285 -112.5t-287.5 113.5t-97 283.5zM207 1198q96 109 205 109q47 0 181 -61q52 -23 103 -23q80 0 144 71l51 -80q-92 -109 -197 -108q-37 0 -83 19.5t-97 43t-102 23.5 q-84 0 -154 -74zM274 356q0 -123 73 -198.5t199 -75.5t194.5 74.5t68.5 199.5v291q0 297 -264 297q-270 0 -271 -297v-291z" />
<glyph unicode="&#xf6;" d="M160 377v270q0 195 99 298.5t281.5 103.5t283 -108t100.5 -294v-270q0 -172 -94.5 -284.5t-285 -112.5t-287.5 113.5t-97 283.5zM274 356q0 -123 73 -198.5t199 -75.5t194.5 74.5t68.5 199.5v291q0 297 -264 297q-270 0 -271 -297v-291zM326 1171.5q0 28.5 19.5 48 t48 19.5t48 -19.5t19.5 -48t-19.5 -48t-48 -19.5t-48 19.5t-19.5 48zM645 1171.5q0 28.5 19.5 48t48 19.5t48 -19.5t19.5 -48t-19.5 -48t-48 -19.5t-48 19.5t-19.5 48z" />
<glyph unicode="&#xf7;" horiz-adv-x="882" d="M160 733v113h655v-113h-655zM424 522.5q0 26.5 19.5 47t48 20.5t48 -20.5t19.5 -47t-19.5 -47t-48 -20.5t-48 20.5t-19.5 47zM424 1048.5q0 28.5 19.5 48t48 19.5t48 -19.5t19.5 -48t-19.5 -48t-48 -19.5t-48 19.5t-19.5 48z" />
<glyph unicode="&#xf8;" d="M160 377v270q0 195 99 298.5t286 103.5q80 0 153 -27l78 182h121l-102 -237q129 -111 129 -320v-270q0 -172 -94.5 -284.5t-284.5 -112.5q-90 0 -164 28l-64 -145h-116l86 200q-127 109 -127 314zM274 356q1 -112 60 -184l321 754q-49 18 -110 18q-270 0 -271 -297v-291z M422 104q55 -23 123 -22q127 0 195.5 74.5t68.5 199.5v291q0 139 -61 213z" />
<glyph unicode="&#xf9;" d="M160 352v674h114v-688q0 -131 73 -194.5t198 -63.5q264 0 264 258v688h115v-1026h-113l8 104q-49 -61 -123.5 -94t-150.5 -33q-385 0 -385 375zM348 1321q0 55 45 70q14 4 27 4q43 0 65 -47l105 -242h-90l-142 188q-10 12 -10 27z" />
<glyph unicode="&#xfa;" d="M160 352v674h114v-688q0 -131 73 -194.5t198 -63.5q264 0 264 258v688h115v-1026h-113l8 104q-49 -61 -123.5 -94t-150.5 -33q-385 0 -385 375zM489 1102l105 241q23 47 65 48q72 0 72 -74q0 -14 -10 -27l-141 -188h-91z" />
<glyph unicode="&#xfb;" d="M160 352v674h114v-688q0 -131 73 -194.5t198 -63.5q264 0 264 258v688h115v-1026h-113l8 104q-49 -61 -123.5 -94t-150.5 -33q-385 0 -385 375zM248 1186l303 289l291 -289l-78 -80l-215 213l-223 -213z" />
<glyph unicode="&#xfc;" d="M160 352v674h114v-688q0 -131 73 -194.5t198 -63.5q264 0 264 258v688h115v-1026h-113l8 104q-49 -61 -123.5 -94t-150.5 -33q-385 0 -385 375zM315 1171.5q0 28.5 20.5 48t47.5 19.5t47.5 -19.5t20.5 -48t-20.5 -48t-47.5 -19.5t-47.5 19.5t-20.5 48zM635 1171.5 q0 28.5 20.5 48t47 19.5t47 -19.5t20.5 -48t-20.5 -48t-47 -19.5t-47 19.5t-20.5 48z" />
<glyph unicode="&#xfd;" horiz-adv-x="1064" d="M160 360v666h110v-686q0 -131 72 -195.5t196 -64.5t201.5 63.5t77.5 196.5v403q0 150 21 199q35 72 129 102l30 -77q-70 -31 -69 -144v-948q0 -125 -49 -196.5t-166 -108.5l-31 88q137 51 137 213v229q-76 -125 -270 -125q-389 0 -389 385zM483 1102l105 241q23 47 65 48 q72 0 72 -74q0 -14 -10 -27l-142 -188h-90z" />
<glyph unicode="&#xfe;" horiz-adv-x="999" d="M160 0v1204h114v-272q109 111 284 110.5t274.5 -111t99.5 -294.5t-105.5 -291.5t-275.5 -107.5q-76 0 -156 37.5t-121 103.5v-379h-114zM274 664q0 -158 76 -237t197 -79t195.5 74t74.5 227.5t-79 221t-188.5 67.5t-189.5 -66.5t-86 -207.5z" />
<glyph unicode="&#xff;" horiz-adv-x="1064" d="M160 360v666h110v-686q0 -131 72 -195.5t196 -64.5t201.5 63.5t77.5 196.5v403q0 150 21 199q35 72 129 102l30 -77q-70 -31 -69 -144v-948q0 -125 -49 -196.5t-166 -108.5l-31 88q137 51 137 213v229q-76 -125 -270 -125q-389 0 -389 385zM328 1171.5q0 28.5 20.5 48 t47 19.5t47 -19.5t20.5 -48t-20.5 -48t-47 -19.5t-47 19.5t-20.5 48zM647 1171.5q0 28.5 20.5 48t47 19.5t47 -19.5t20.5 -48t-20.5 -48t-47 -19.5t-47 19.5t-20.5 48z" />
<glyph unicode="&#x152;" horiz-adv-x="1654" d="M160 379v659q0 211 115.5 319.5t316.5 108.5t311 -110v78h684v-107h-569v-233q2 -18 2 -58v-190h389l-39 -113h-350v-354l-2 -45v-232h565v-102h-680v82q-117 -104 -302 -104.5t-313 97t-128 304.5zM274 381q0 -145 89.5 -220t219.5 -75t216 58.5t104 177.5v792 q-18 121 -101 182.5t-219.5 61.5t-222.5 -76t-86 -225v-676z" />
<glyph unicode="&#x153;" horiz-adv-x="1615" d="M160 377v270q0 195 99 298.5t300 103.5t303 -166q98 162 326 161q170 0 265 -91t95 -253v-266l-622 -35v-125q0 -111 80 -159q61 -39 147 -39q141 0 299 84l45 -88q-158 -96 -363.5 -96.5t-285.5 147.5q-106 -143 -300 -143t-291 113.5t-97 283.5zM274 356 q0 -123 73 -198.5t199 -75.5t194.5 74.5t68.5 199.5v291q0 297 -264 297q-270 0 -271 -297v-291zM926 512l508 25v178q0 88 -47.5 144t-98.5 71.5t-102 15.5q-113 0 -186.5 -61.5t-73.5 -192.5v-180z" />
<glyph unicode="&#x178;" horiz-adv-x="1146" d="M123 928v506h115v-527q0 -143 98 -218t237.5 -75t229.5 51.5t112 153.5v615h117v-1115q0 -150 -56.5 -234.5t-158.5 -98.5l-26 75q125 47 124 250v291q-55 -49 -147 -74.5t-176 -25.5q-217 0 -343 107.5t-126 318.5zM350 1564.5q0 28.5 19.5 48t48 19.5t48 -19.5 t19.5 -48t-19.5 -48t-48 -19.5t-48 19.5t-19.5 48zM670 1564.5q0 28.5 19.5 48t48 19.5t48 -19.5t19.5 -48t-19.5 -48t-48 -19.5t-48 19.5t-19.5 48z" />
<glyph unicode="&#x2c6;" horiz-adv-x="806" d="M94 1290l303 289l291 -289l-78 -80l-215 213l-223 -213z" />
<glyph unicode="&#x2dc;" horiz-adv-x="911" d="M160 1331q96 109 205 109q47 0 181 -60q52 -24 103 -24q80 0 144 71l51 -79q-92 -109 -197 -109q-37 0 -83 19.5t-97 43t-102 23.5q-84 0 -154 -74z" />
<glyph unicode="&#x2000;" horiz-adv-x="935" />
<glyph unicode="&#x2001;" horiz-adv-x="1870" />
<glyph unicode="&#x2002;" horiz-adv-x="935" />
<glyph unicode="&#x2003;" horiz-adv-x="1870" />
<glyph unicode="&#x2004;" horiz-adv-x="623" />
<glyph unicode="&#x2005;" horiz-adv-x="467" />
<glyph unicode="&#x2006;" horiz-adv-x="311" />
<glyph unicode="&#x2007;" horiz-adv-x="311" />
<glyph unicode="&#x2008;" horiz-adv-x="233" />
<glyph unicode="&#x2009;" horiz-adv-x="374" />
<glyph unicode="&#x200a;" horiz-adv-x="103" />
<glyph unicode="&#x2010;" horiz-adv-x="839" d="M92 733v113h656v-113h-656z" />
<glyph unicode="&#x2011;" horiz-adv-x="839" d="M92 733v113h656v-113h-656z" />
<glyph unicode="&#x2012;" horiz-adv-x="839" d="M92 733v113h656v-113h-656z" />
<glyph unicode="&#x2013;" horiz-adv-x="1207" d="M92 733v113h1024v-113h-1024z" />
<glyph unicode="&#x2014;" horiz-adv-x="2231" d="M92 733v113h2048v-113h-2048z" />
<glyph unicode="&#x2018;" horiz-adv-x="206" d="M-2 1231q0 119 131 227l82 -57q-92 -53 -119 -94l-10 -15l20 -6q37 -27 36 -63.5t-20.5 -54t-33.5 -17.5t-28.5 1t-36 24.5t-21.5 54.5z" />
<glyph unicode="&#x2019;" horiz-adv-x="206" d="M-4 1204q92 53 119 94l10 15l-21 6q-37 27 -35.5 63.5t21 54t33.5 17.5t28.5 -1t36 -24.5t21.5 -54.5q0 -118 -131 -227z" />
<glyph unicode="&#x201a;" horiz-adv-x="325" d="M23 -115q92 53 118 95l11 14l-21 6q-37 27 -36 63.5t20.5 54t34 17.5t29 -1t36 -24.5t21.5 -54.5q-1 -118 -132 -227z" />
<glyph unicode="&#x201c;" horiz-adv-x="516" d="M-2 1239q0 119 131 227l82 -57q-92 -53 -119 -94l-10 -15l20 -6q37 -27 36 -63.5t-20.5 -54t-33.5 -17.5t-28.5 1t-36 24.5t-21.5 54.5zM307 1239q0 119 131 227l82 -57q-92 -53 -119 -94l-10 -15l21 -6q37 -27 35.5 -63.5t-20.5 -54t-33.5 -17.5t-29 1t-36 24.5 t-21.5 54.5z" />
<glyph unicode="&#x201d;" horiz-adv-x="516" d="M-4 1204q92 53 119 94l10 15l-21 6q-37 27 -35.5 63.5t21 54t33.5 17.5t28.5 -1t36 -24.5t21.5 -54.5q0 -118 -131 -227zM305 1204q92 53 119 94l10 15l-20 6q-37 27 -36 63.5t20.5 54t33.5 17.5t28.5 -1t36 -24.5t21.5 -54.5q0 -118 -131 -227z" />
<glyph unicode="&#x201e;" horiz-adv-x="634" d="M23 -111q92 53 118 95l11 14l-21 6q-37 27 -36 63.5t20.5 54t34 17.5t29 -1t36 -24.5t21.5 -54.5q-1 -118 -132 -227zM332 -111q86 49 129 109l-21 6q-37 27 -35.5 63.5t20.5 54t33.5 17.5t29 -1t36 -24.5t21.5 -54.5q0 -118 -131 -227z" />
<glyph unicode="&#x2022;" horiz-adv-x="958" d="M160 690.5q0 151.5 106.5 258t258 106.5t259 -106.5t107.5 -258t-107.5 -259t-259 -107.5t-258 107.5t-106.5 259z" />
<glyph unicode="&#x2026;" horiz-adv-x="976" d="M23 67.5q0 26.5 19 47t48 20.5t48.5 -20.5t19.5 -47t-19.5 -47t-48.5 -20.5t-48 20.5t-19 47zM385 67.5q0 26.5 20.5 47t47 20.5t47 -20.5t20.5 -47t-20.5 -47t-47 -20.5t-47 20.5t-20.5 47zM754 67.5q0 26.5 20.5 47t47 20.5t47 -20.5t20.5 -47t-20.5 -47t-47 -20.5 t-47 20.5t-20.5 47z" />
<glyph unicode="&#x202f;" horiz-adv-x="374" />
<glyph unicode="&#x2039;" horiz-adv-x="548" d="M86 547v2l383 383l76 -78l-307 -307l303 -314l-72 -69z" />
<glyph unicode="&#x203a;" horiz-adv-x="598" d="M6 854l76 78l383 -383v-2l-383 -383l-72 69l303 314z" />
<glyph unicode="&#x205f;" horiz-adv-x="467" />
<glyph unicode="&#x20ac;" horiz-adv-x="1079" d="M160 518v113h112v102h-112v113h112v186q0 156 44 236t135 135q92 51 234.5 51t275.5 -68l-33 -77q-117 43 -221 43q-319 0 -320 -301v-205h428v-113h-428v-102h428v-113h-428v-139q0 -268 260 -293q20 -4 43 -4q123 0 297 61l25 -96q-174 -68 -332 -67q-33 0 -99.5 6 t-141 46t-121 127t-46.5 216v143h-112z" />
<glyph unicode="&#x2122;" horiz-adv-x="1198" d="M215 1339v95h473l80 -222l78 222h131v-385h-94v245l-82 -245h-64l-82 245v-245h-98v290h-115v-290h-98v290h-129z" />
<glyph unicode="&#xe000;" horiz-adv-x="1024" d="M0 0v1024h1024v-1024h-1024z" />
<glyph unicode="&#xfb01;" horiz-adv-x="808" d="M160 0v1149q0 139 88 221t217 82t237 -100l-73 -76q-94 51 -153.5 51t-98.5 -20q-102 -51 -103 -183v-98h234l-49 -108h-185v-918h-114zM627 0v1026h114v-1026h-114z" />
<glyph unicode="&#xfb02;" horiz-adv-x="808" d="M160 0v1149q0 139 88 219t225 80t268 -102v-1346h-114v1276q-92 49 -152.5 49t-99.5 -20q-100 -51 -101 -181v-98h234l-49 -108h-185v-918h-114z" />
<glyph unicode="&#xfb04;" horiz-adv-x="1280" d="M160 0v1149q0 100 53 174q86 123 235.5 123t270.5 -86q86 84 233.5 84t259.5 -80v-1364h-114v1288q-82 41 -142.5 41t-103.5 -22q-100 -55 -100 -166v-115h233l-49 -108h-184v-918h-115v1149q0 63 22 121q-90 55 -176 55t-147.5 -60.5t-61.5 -140.5v-98h234l-49 -108 h-185v-918h-114z" />
</font>
</defs>
</svg>
