<?xml version="1.0" standalone="no"?>
<!DOCTYPE svg PUBLIC "-//W3C//DTD SVG 1.1//EN" "http://www.w3.org/Graphics/SVG/1.1/DTD/svg11.dtd" >
<svg xmlns="http://www.w3.org/2000/svg">
<metadata></metadata>
<defs>
<font id="CrimsonTextRoman" horiz-adv-x="1368" >
<font-face units-per-em="2048" ascent="1434" descent="-614" />
<missing-glyph horiz-adv-x="458" />
<glyph horiz-adv-x="0" />
<glyph horiz-adv-x="2048" />
<glyph unicode="&#xd;" horiz-adv-x="682" />
<glyph unicode=" "  horiz-adv-x="458" />
<glyph unicode="&#x09;" horiz-adv-x="458" />
<glyph unicode="&#xa0;" horiz-adv-x="458" />
<glyph unicode="!" horiz-adv-x="560" d="M164 90q0 48 34 81t82 33t81 -33t33 -81t-33 -83t-81 -35t-82 35t-34 83zM180 1162q0 46 29 84t74 38t68 -37t23 -73t-9 -122q-25 -240 -53 -690q-2 -30 -10 -41t-38 -25q-10 -4 -17 10t-9 34q-25 410 -41.5 593t-16.5 229z" />
<glyph unicode="&#x22;" horiz-adv-x="696" d="M84 1266q0 34 37 82t73 48h28q30 0 45 -25t15 -95t-28 -194t-34 -184q-4 -30 -34 -30t-34 26q-10 94 -39 216t-29 156zM412 1267q0 35 36 82t72 47h30q28 0 43 -25t15 -95t-30 -193t-36 -185q-2 -30 -30 -30t-32 26q-10 94 -39 216t-29 157z" />
<glyph unicode="#" horiz-adv-x="952" d="M48 374q0 24 9 54t12 32t7 2h174l24 172h-214q-12 2 -12 26t9 54t12 32t7 2h216l48 312q18 18 62 18q54 0 54 -14l-2 -4l-46 -312h188l48 312q18 18 62 18q54 0 54 -14l-2 -4l-48 -312h164q2 0 4 1t6 -3t4 -22t-18 -76l-12 -14h-166l-26 -172h208q2 0 4 1t6 -3t4 -22 t-10 -50q-12 -38 -18 -38h-210l-48 -302l-6 -8q-12 -10 -54 -10h-26q-12 0 -19 5t-7 9v4l44 302h-188l-44 -302q0 -18 -62 -18h-26q-12 0 -19 5t-7 9l-2 4l46 302h-172q-12 0 -12 24zM364 462h190l24 172h-188z" />
<glyph unicode="$" horiz-adv-x="982" d="M90 332q0 16 32 16t48 -16q72 -270 316 -270q98 0 168 58t70 162q0 64 -42 134q-28 47 -158 112q-209 105 -311.5 196.5t-102.5 229.5t114 236t266 98q82 0 180 -22t110 -24q22 -180 22 -274q0 -16 -14 -16q-50 4 -52 22q-10 70 -79 150t-177 80q-218 0 -218 -194 q0 -92 59 -150q60 -59 248 -165q160 -90 185.5 -115.5t57.5 -56.5t44 -56q34 -71 34 -127q0 -154 -122 -255t-286 -101q-80 0 -336 46q-48 128 -56 302zM328 -86l240 1452q70 0 70 -14l-240 -1456q-70 0 -70 18z" />
<glyph unicode="%" horiz-adv-x="1360" d="M98 970q0 134 84 227t214 93t213 -94t83 -224t-82 -226t-209 -96t-215 93t-88 227zM146 -2l964 1250q20 24 41 24t32 -2t14 -3t8 -8t9 -11l-966 -1248q-20 -24 -56 -24t-46 22zM226 988q0 -104 56 -196t132 -92t111 74t35 181t-47 197t-126 90t-120 -75t-41 -179z M674 306q0 134 85 227t215 93t212 -94t82 -225t-81 -226t-209 -95t-216 93t-88 227zM802 325q0 -103 56 -196t133 -93t111 74t34 181t-47 197t-125 90t-120 -75t-42 -178z" />
<glyph unicode="&#x26;" horiz-adv-x="1342" d="M108 306q0 140 88 227t244 167q-38 64 -57 103q-59 121 -59 235t84 194t214 80t208 -59t78 -173t-78 -200t-220 -174q116 -196 296 -398q50 76 82 146t32 88t-19 25t-43 8t-28 3q-4 8 -4 24t6 22h158q50 0 220 10q10 -6 10 -31t-12 -25q-26 0 -74 -12t-64 -22 q-2 -2 -28 -45q-92 -152 -180 -253q123 -129 150.5 -142.5t50.5 -13.5t56 34t43 58q16 0 31 -12t15 -24q-73 -146 -218 -146q-52 0 -110 36t-88 72l-32 36q-172 -150 -357 -150t-290 86t-105 226zM280 344q0 -132 82 -198t202 -66q62 0 133 30t117 80q-58 58 -140 168 t-134 190l-54 80q-72 -50 -106 -77t-67 -83t-33 -124zM470 1086q0 -128 104 -316q104 60 151 121t47 151t-40 144t-105 54t-111 -43t-46 -111z" />
<glyph unicode="'" horiz-adv-x="372" d="M84 1267q0 35 36 82t72 47h30q30 0 45 -25t15 -95t-31 -193t-37 -185q-2 -30 -30 -30t-32 26q-10 94 -39 216t-29 157z" />
<glyph unicode="(" horiz-adv-x="646" d="M142 615q0 173 41 343t100 284t125 184t118 70q10 0 18 -18t8 -27t-2 -9q-100 -48 -189 -295t-89 -533t101 -526t177 -278q4 -2 4 -12t-9 -25t-19 -15q-42 0 -106 68t-127 177t-107 274t-44 338z" />
<glyph unicode=")" horiz-adv-x="644" d="M90 -202q0 10 4 12q76 38 177 278t101 526t-89 533t-189 295q-2 0 -2 9t8 27t18 18q52 0 118 -70t125 -184t100 -284t41 -343t-44 -338t-107 -274t-127 -177t-106 -68q-10 0 -19 15t-9 25z" />
<glyph unicode="*" horiz-adv-x="888" d="M81 915q-5 31 17 55t66 29t117 -5t109 -6q38 13 19 43.5t-66 81.5q-146 158 -61 207q64 32 102 -46q20 -46 33 -118q22 -123 49 -128q28 -5 71 77.5t73 116.5q66 74 116 28q24 -24 20 -55t-36 -60t-97 -64t-93 -61l-10 -28q2 -14 27 -25t93 -23t109 -30t59 -45t4 -56 t-46 -35t-70 15t-91 72t-85 69l-28 6q-23 -11 -10.5 -104.5t7.5 -138.5t-26 -69t-52 -20t-47 31t-7 71t42 111q53 109 33 129q-16 19 -100 -21.5t-129 -49.5t-76 3t-36 43z" />
<glyph unicode="+" horiz-adv-x="1164" d="M104 460q0 24 9 54t12 32t7 2h384q10 0 10 12v380q-2 10 10 14q54 16 82 16l20 -12v-400q0 -10 8 -10h400q16 0 16 -10q0 -16 -11 -56q-13 -46 -19 -46h-386q-8 0 -8 -6v-384q0 -17 -102 -34q-10 0 -10 16v398q0 10 -12 10h-398q-12 0 -12 24z" />
<glyph unicode="," horiz-adv-x="478" d="M88 -286q0 8 23 29t51 49t51 78t23 94t-30 106t-30 82q0 44 44 75t85 31t63 -8q26 -38 26 -102t-4 -78q-28 -130 -78 -211t-176 -185h-2q-8 0 -27 16t-19 24z" />
<glyph unicode="-" horiz-adv-x="750" d="M116 420q0 102 24 102h2l482 24h2q12 0 12 -31t-7 -58q-8 -29 -19 -37l-482 -22h-4t-6 6t-4 16z" />
<glyph unicode="." horiz-adv-x="466" d="M118 90q0 48 35 81t83 33t81 -33t33 -81t-33 -83t-81 -35t-83 35t-35 83z" />
<glyph unicode="/" horiz-adv-x="848" d="M50 -56l592 1534q20 44 98 44q18 0 42 -12l-592 -1534q-4 -14 -31 -30t-57 -16q-45 0 -52 14z" />
<glyph unicode="0" horiz-adv-x="968" d="M48 639q0 271 118 457t319 186t318 -185t117 -458t-118 -459t-317 -186t-318 187t-119 458zM224 641q0 -241 70 -406t180 -165q128 0 199 166t71 409t-70 402t-186 159t-190 -162t-74 -403z" />
<glyph unicode="1" horiz-adv-x="968" d="M226 1041q0 9 4 13q338 230 346 230h4q16 0 24 -38q-20 -66 -20 -188v-788q0 -116 16 -178q4 -14 59 -27t75 -13q8 0 8 -27t-2 -31q-200 10 -237 10t-237 -10q-8 8 -8 33t8 25q26 0 81 13t59 27q12 48 12 114v720q0 107 -9 119.5t-20 12.5t-34 -12t-53 -30l-40 -24 q-12 6 -24 23t-12 26z" />
<glyph unicode="2" horiz-adv-x="968" d="M98 60q218 220 374 457t156 401q0 108 -54 167t-142 59q-166 0 -266 -166q-12 0 -25 13t-13 19q14 56 105 155q45 49 120 84t159 35q134 0 211 -100t77 -226q0 -155 -103 -314q-53 -82 -96 -143t-119 -141q-121 -128 -198 -202q-6 -10 4 -14h386q56 0 81 32t51 122 q8 22 31 22t33 -8q-48 -240 -53 -276t-41 -36h-656q-8 0 -15 23t-7 37z" />
<glyph unicode="3" horiz-adv-x="970" d="M112 108q0 94 74 94q27 0 64.5 -39t53.5 -51q58 -42 149 -42t162 69t71 204t-76 217t-164 82t-144 -14q-14 18 -14 42t4 30q138 24 220 96t82 196q0 68 -53 121t-109 53t-93 -15t-56 -31t-37 -35t-20 -21q-8 0 -16 19t-8 33q54 80 122 124t165 44t176 -71t79 -172 t-43 -162t-123 -121q106 -38 193 -126t87 -220q0 -190 -134 -306t-318 -116t-274 60q-20 14 -20 58z" />
<glyph unicode="4" horiz-adv-x="964" d="M66 410l606 856q18 24 45 24t27 -20v-806h124q32 0 32 -96q0 -12 -12 -20h-144v-350q-6 -10 -82 -10t-76 16v344h-506q-14 18 -14 62zM208 482q0 -18 14 -18h364v532q0 18 -10 18q0 -2 -2 -4l-364 -522q-2 -2 -2 -6z" />
<glyph unicode="5" horiz-adv-x="970" d="M114 108q0 94 74 94q27 0 64.5 -39t53.5 -51q58 -42 151 -42t160 71t67 219q0 103 -59 189q-67 97 -233 97q-104 0 -174 -22q-16 8 -36 28l96 594q394 12 470 28q10 -14 10 -53t-12 -99q-52 -16 -226 -22l-174 -8q-10 -2 -14 -16q-22 -110 -58 -320q66 26 188 26 q160 0 277 -110t117 -260q0 -184 -129 -303t-316 -119t-277 60q-20 14 -20 58z" />
<glyph unicode="6" horiz-adv-x="968" d="M88 409q0 163 62 307t167 253q208 216 483 325q12 0 29 -22t17 -32q-202 -88 -343 -213t-195 -323q-4 -20 2 -20q4 2 19 14t88 38t133 26q140 0 235 -117t95 -269t-124 -270t-288 -118t-272 129t-108 292zM261 393q-1 -113 66 -220t161 -107t160 77t66 209t-65 220 t-191 88q-54 0 -104 -29t-64 -61q-28 -64 -29 -177z" />
<glyph unicode="7" horiz-adv-x="966" d="M72 942q52 232 62 300q2 24 32 24h578l134 6q14 0 14 -15t-8 -34t-25 -53l-551 -1176q-6 -6 -25 -6t-43 21t-24 35l532 1062h-482q-34 0 -61 -28t-39 -56t-26 -74q-2 -8 -28 -10t-40 4z" />
<glyph unicode="8" horiz-adv-x="968" d="M106 308q0 79 42 139q35 50 58.5 71.5t33.5 30.5t36 27t33 23t31 21l26 16q10 6 0 12q-78 46 -141 129t-63 197t100 213t235 99t230 -83t95 -228t-224 -287q-14 -4 0 -12q104 -60 183 -151t79 -191q0 -148 -115 -250t-274 -102t-262 90t-103 236zM264 304q0 -106 66 -178 t159 -72t151 60t58 162q0 141 -201 280q-55 38 -64 38t-11 -2q-84 -52 -121 -117t-37 -171zM310 984q0 -136 208 -256q8 -4 13 -4t11 4q136 90 136 244q0 94 -55 169t-135 75t-129 -64t-49 -168z" />
<glyph unicode="9" horiz-adv-x="968" d="M90 898q0 158 123 277t286 119t271 -129t108 -292t-64 -312t-165 -260q-211 -231 -439 -313q-12 0 -28 24t-16 34q154 60 296 197t196 335q4 20 -2 20q-4 -2 -6 -4q-22 -26 -92 -48t-124 -22q-144 0 -244 108t-100 266zM256 926q0 -130 66 -217t188 -87q54 0 104 29 t64 61q26 60 27 176t-66 222t-163 106t-158 -80t-62 -210z" />
<glyph unicode=":" horiz-adv-x="472" d="M120 92q0 50 35 85t85 35t84 -35t34 -85t-34 -85t-84 -35t-85 35t-35 85zM120 742q0 50 35 84t85 34t84 -34t34 -84t-34 -86t-84 -36t-85 36t-35 86z" />
<glyph unicode=";" horiz-adv-x="488" d="M90 -283q0 7 37 37t73 88t36 123t-27 114t-27 57q0 40 43 76t97 36q70 0 70 -170q0 -164 -93 -266q-51 -56 -153 -142q-8 -4 -18 -4t-24 22t-14 29zM164 742q0 50 36 84t86 34t84 -34t34 -84t-34 -86t-84 -36t-86 36t-36 86z" />
<glyph unicode="&#x3c;" horiz-adv-x="1070" d="M122 434q0 30 36 48l738 374q8 4 10 4q16 0 34 -94l-6 -18l-652 -330l662 -336q6 -2 6 -14t-12 -55t-17 -43t-13 4l-750 380q-36 20 -36 80z" />
<glyph unicode="=" horiz-adv-x="1142" d="M104 254q0 20 10 54q11 38 18 38h892q16 0 16 -10q0 -16 -11 -56q-13 -46 -19 -46h-892q-14 0 -14 20zM104 538q10 92 30 92h898q8 0 8 -13t-11 -53q-13 -46 -19 -46h-892q-14 0 -14 20z" />
<glyph unicode="&#x3e;" horiz-adv-x="1070" d="M122 70l6 12l662 336l-650 330q-6 2 -6 22t13 55t17 35t12 -4l740 -374q34 -18 34 -48q0 -62 -34 -80l-750 -380q-8 -4 -13 -4t-18 43t-13 57z" />
<glyph unicode="?" horiz-adv-x="732" d="M118 90q0 48 34 81t82 33t82 -33t34 -81t-34 -83t-82 -35t-82 35t-34 83zM130 1197q0 45 14 67q40 20 100 20q120 0 257 -106t137 -264q0 -104 -45 -173t-157 -133q-42 -24 -95 -66t-67 -68t-14 -128q0 -26 -33 -26t-33 16l-2 188q0 52 11 78t16 40t21 30t21 24t26 22 t25 18t27 19t49 31t47 30t51 39q52 43 52 97q0 86 -49 132t-111 46t-98 -7t-62 -7t-57 18t-31 63z" />
<glyph unicode="@" horiz-adv-x="1638" d="M104 370q0 360 232 572t578 212q144 0 268 -63t205 -163t126 -221t45 -250t-34 -230t-90 -153q-108 -100 -240 -100q-96 0 -160 70t-64 140q0 6 -10 -4q-32 -54 -126 -124t-164 -70q-104 0 -161 91t-57 205q0 214 148 376t402 162l178 -18l-64 -552q-4 -40 -4 -56 q0 -140 100 -140q70 0 122 42t78 106q48 118 48 226q0 258 -159 443t-422 185t-460 -175t-197 -435q0 -314 178 -506t538 -192q35 0 77.5 17t52.5 23l12 4q4 -18 4 -20q0 -40 -69 -77t-206 -37t-275 66t-231 169t-146 229t-53 248zM608 286q0 -94 36 -137t82 -43 q78 0 164 93t90 141l30 304q2 12 2 26t-4 23q-11 25 -98 25q-128 0 -215 -115t-87 -317z" />
<glyph unicode="A" d="M40 27q0 25 8 25q24 0 62 10t52 28q42 54 94 188l348 894q4 10 11 32t11 33t12 28t14 25t15 18q16 18 45 18l18 -6l400 -1056q36 -94 53 -134t67 -59t74 -19q8 0 8 -23t-4 -35q-200 10 -211 10t-241 -10q-8 8 -7 33t9 25q24 0 60 10t42 26q4 16 4 37q0 44 -20 111 l-90 248q-10 14 -139 14t-279 -10l-10 -6l-86 -220q-34 -100 -34 -133t17 -46t57 -22t58 -9q6 0 7 -24t-3 -34q-200 10 -222 10t-192 -10q-8 8 -8 33zM494 606q0 -8 4 -8q104 -4 167 -4t157 6l6 10l-162 442z" />
<glyph unicode="B" horiz-adv-x="1184" d="M72 1283q0 25 8 33q104 -4 238 -4l282 2q193 0 318 -102q44 -36 72 -95t28 -131t-46 -134q-66 -89 -152 -120q-16 -6 -10 -12q78 -14 186 -113t108 -233q0 -172 -139 -273t-369 -101h-274l-242 -6q-6 6 -6 32t6 26q26 0 77 14t63 35t12 185v756q0 118 -14 172 q-6 16 -59 30t-79 14q-8 0 -8 25zM406 296q0 -152 31 -179t95 -27t113 8t117 31t110 80t42 143q0 128 -86 219t-270 91q-44 0 -144 -8q-8 -24 -8 -66v-292zM406 760q0 -14 98 -14t163 7t120 56t55 131q0 138 -69 215t-205 77q-92 0 -142 -14q-12 -2 -12 -18l-8 -202v-238z " />
<glyph unicode="C" horiz-adv-x="1312" d="M88 652q0 276 190 479t466 203q236 0 486 -50q-4 -268 -4 -288q0 -30 -42 -30q-20 0 -26 10q-29 126 -123 197q-41 31 -116 54t-169 23q-196 0 -334 -173t-138 -391q0 -352 233 -523q121 -89 303 -89t290 116q43 46 81 161q11 33 17 33q36 0 66 -18q0 -22 -28 -153 t-40 -137q-146 -88 -478 -88q-264 0 -449 194t-185 470z" />
<glyph unicode="D" horiz-adv-x="1444" d="M68 1283q0 25 8 33q104 -4 238 -4l348 4q326 0 508 -192t182 -467t-184 -469t-508 -194q-24 0 -143 4q-79 3 -141 3q-31 0 -58 -1l-242 -6q-6 6 -6 32t6 26q26 0 77 14t63 35t12 185v756q0 118 -14 172q-6 16 -59 30t-79 14q-8 0 -8 25zM402 278q0 -84 30 -152 q8 -20 107 -30t153 -10q460 0 460 594q0 228 -121 388t-353 160h-10q-216 0 -241 -34t-25 -124v-792z" />
<glyph unicode="E" horiz-adv-x="1142" d="M58 1283q0 25 8 33q104 -4 238 -4l646 16q8 -58 31 -153t27 -119q-10 -10 -36 -10t-28 14q-30 110 -84 141t-148 31h-134q-172 0 -176 -26q-10 -48 -10 -168v-320q0 -12 86 -12h153t87 8t36 10t21 26t15 35t14 57q2 14 28 14t36 -10v-378q-8 -8 -33 -8t-31 16 q-26 100 -35 109t-28 21t-184 12t-165 -18v-310q0 -130 18 -182q6 -20 136 -20h96q186 0 252 34q30 16 67 71t59 131q4 12 35 12t43 -12q-98 -254 -108 -332l-682 8l-242 -6q-6 6 -6 32t6 26q26 0 77 14t63 35t12 185v756q0 118 -14 172q-6 16 -59 30t-79 14q-8 0 -8 25z " />
<glyph unicode="F" horiz-adv-x="1102" d="M80 1283q0 25 8 33q104 -4 238 -4l646 16q8 -58 31 -153t27 -119q-10 -10 -36 -10t-28 14q-30 110 -84 141t-148 31h-134q-172 0 -176 -26q-10 -48 -10 -168v-326q0 -12 84 -12h106q134 0 164 19t52 109q2 12 4 18q2 14 28 14t36 -10v-388q-8 -8 -33 -8t-31 16 q-26 100 -35 109t-28 21t-183 12t-164 -18v-316q0 -116 18 -186q4 -14 56 -27t72 -13q8 0 8 -23t-4 -35q-200 10 -221 10t-251 -10q-8 8 -8 33t8 25q26 0 77 12t57 28q14 54 14 180v770q0 118 -14 172q-6 16 -59 30t-79 14q-8 0 -8 25z" />
<glyph unicode="G" horiz-adv-x="1430" d="M88 652q0 276 190 479t466 203q142 0 474 -90q8 -228 8 -248q0 -30 -42 -30q-20 0 -26 10q-54 274 -408 274q-200 0 -334 -170t-134 -401t147 -418t369 -187q176 0 260 44q14 6 14 30l-2 164v14q0 130 -16 172q-8 20 -65 32t-89 12q-8 0 -8 25t8 33q256 -10 267 -10 t211 10q4 -12 4 -35t-8 -23q-12 0 -55 -13t-62 -25t-19 -132l6 -144q0 -36 14 -70t14 -40q0 -18 -62 -41t-72 -27t-45 -15t-56 -15t-60 -12t-74 -11q-105 -9 -181 -9q-264 0 -449 194t-185 470z" />
<glyph unicode="H" horiz-adv-x="1414" d="M76 27q0 25 8 25q26 0 77 12t57 28q14 54 14 178v776q0 124 -14 178q-6 16 -57 29t-77 13q-8 0 -8 25t8 33q156 -12 230 -12t242 12q4 -8 3 -33t-7 -25q-20 0 -72 -14t-56 -28q-18 -70 -18 -186v-298l4 -6q196 -4 308 -4t292 4q4 4 4 8v304q0 124 -14 178q-6 16 -57 29 t-77 13q-8 0 -8 25t8 33q144 -12 223 -12t247 12q4 -12 4 -35t-8 -23q-20 0 -72 -14t-56 -28q-16 -62 -16 -186v-760q0 -124 16 -186q4 -14 56 -27t72 -13q8 0 8 -23t-4 -35q-200 10 -220 10t-250 -10q-8 8 -8 33t8 25q26 0 77 12t57 28q14 54 14 178v352l-4 8 q-188 4 -396 4t-208 -10v-346q0 -116 18 -186q4 -14 56 -27t72 -13q6 0 7 -24t-3 -34q-200 10 -221 10t-251 -10q-8 8 -8 33z" />
<glyph unicode="I" horiz-adv-x="636" d="M76 27q0 25 8 25q26 0 77 12t57 28q14 54 14 178v776q0 124 -14 178q-6 16 -57 29t-77 13q-8 0 -8 25t8 33q230 -10 251 -10t221 10q4 -12 4 -35t-8 -23q-20 0 -72 -14t-56 -28q-18 -70 -18 -186v-760q0 -116 18 -186q4 -14 56 -27t72 -13q8 0 8 -23t-4 -35 q-200 10 -221 10t-251 -10q-8 8 -8 33z" />
<glyph unicode="J" horiz-adv-x="644" d="M-190 -349q0 45 37 73t80 28t88 -43t72 -43t56 28t57 82q64 123 64 378v892q0 124 -14 178q-6 16 -57 29t-77 13q-8 0 -8 25t8 33q156 -12 230 -12t242 12q4 -12 4 -35t-8 -23q-20 0 -72 -14t-56 -28q-18 -70 -18 -186v-868q0 -252 -141 -438t-359 -186q-48 0 -104 32 q-24 28 -24 73z" />
<glyph unicode="K" horiz-adv-x="1386" d="M82 27q0 25 8 25q26 0 77 12t57 28q14 54 14 178v776q0 124 -14 178q-6 16 -57 29t-77 13q-8 0 -8 25t8 33q156 -12 230 -12t242 12q4 -8 3 -33t-7 -25q-20 0 -72 -14t-56 -28q-18 -70 -18 -186v-326l14 -12h14q64 0 116 58q234 262 344 406q48 58 48 76q0 34 -114 34 q-8 0 -8 18t4 32q156 -12 214 -12t202 12q4 -8 3 -29t-7 -21q-122 -14 -184 -84l-402 -468q-16 -18 14 -54l482 -530q32 -34 84 -56q71 -30 128 -30q10 0 10 -25t-4 -33q-200 10 -259 10t-259 -10q-8 8 -8 33t8 25q24 0 55 8t31 24q0 64 -454 530q-8 8 -58 8q-14 0 -14 -16 v-328q0 -116 18 -186q4 -14 56 -27t72 -13q6 0 7 -24t-3 -34q-200 10 -221 10t-251 -10q-8 8 -8 33z" />
<glyph unicode="L" horiz-adv-x="1136" d="M72 30q0 26 6 26q28 0 78 12t62 33t12 185v756q0 128 -14 182q-6 16 -57 29t-77 13q-8 0 -8 25t8 33q156 -12 230 -12t242 12q4 -12 4 -35t-8 -23q-20 0 -72 -14t-56 -28q-18 -70 -18 -186v-754q0 -106 18 -176q6 -20 136 -20h96q186 0 252 34q30 16 67 71t59 131 q4 12 35 12t43 -12q-98 -254 -108 -332l-682 12l-242 -6q-6 6 -6 32z" />
<glyph unicode="M" horiz-adv-x="1820" d="M52 28q0 24 10 24q28 0 83 13t73 31q32 36 36 209t9 375t9 317t4 156t-8 71q-6 16 -68 29t-90 13q-8 0 -8 25t8 33q170 -10 234 -10t174 10q14 -46 396 -1002q2 -4 9 -4t9 8q196 460 312 758l80 240q128 -8 209 -8t181 8q6 -18 6 -38t-10 -20h-4q-22 0 -58 -13t-57 -29 t-21 -90t18 -854q2 -114 30 -184q8 -18 60 -31t74 -13q8 0 8 -23t-4 -35q-200 10 -224 10t-254 -10q-8 8 -8 33t8 25q20 0 61 10t62 22t21 84v106l-24 704q-2 32 -11 75t-19 43q-4 0 -10 -14l-418 -1000q-38 -86 -74 -86q-6 0 -18 4l-458 1164l-32 -1014q0 -36 12 -52 t73 -31t81 -15q8 0 8 -23t-4 -35q-200 10 -218 10t-248 -10q-10 10 -10 34z" />
<glyph unicode="N" horiz-adv-x="1442" d="M40 26q0 26 6 26q28 0 91 15t69 33q20 52 20 188v786q0 98 -14 150q-6 16 -68 29t-90 13q-8 0 -8 25t8 33q156 -4 232 -4t132 4q74 -136 678 -980q6 34 6 82v622q0 122 -14 176q-6 16 -69 31t-89 15q-8 0 -8 23t8 31q156 -12 236 -12l224 12q4 -12 4 -33t-8 -21 q-20 0 -87 -16t-71 -30q-16 -62 -16 -186v-760q0 -124 6 -280q-8 -8 -40 -8t-64 46l-776 1100v-854q0 -132 14 -186q4 -14 67 -29t83 -15q6 0 7 -24t-3 -34q-200 10 -230 10l-230 -10q-6 6 -6 32z" />
<glyph unicode="O" horiz-adv-x="1456" d="M88 656q0 280 187 479t451 199t452 -199t188 -479t-188 -478t-452 -198t-451 198t-187 478zM286 700q0 -160 52 -302t162 -237t248 -95t234 83q186 161 186 469q0 160 -52 301t-162 236t-258 95q-190 0 -300 -166t-110 -384z" />
<glyph unicode="P" horiz-adv-x="1090" d="M80 1283q0 25 8 33l240 -4l282 8q137 0 263 -80q63 -40 103 -114t40 -152t-25 -145t-73 -130t-129 -104t-187 -41t-148 56q-12 14 -6 46q2 8 6 6q60 -22 147 -22t159 84t72 213t-62 212t-192 83q-90 0 -140 -14q-10 -2 -14 -15q-10 -33 -10 -205v-714q0 -134 13 -167 t74 -49t87 -16q8 0 8 -23t-4 -35q-200 10 -260 10l-244 -10q-6 6 -6 34t6 28q28 0 78 12t62 33t12 185v756q0 118 -14 172q-6 16 -59 30t-79 14q-8 0 -8 25z" />
<glyph unicode="Q" horiz-adv-x="1448" d="M88 656q0 280 187 479t451 199t452 -199t188 -467t-147 -448t-301 -210q54 -26 149 -82t159 -76t129 -20t95 4t48 8t22 4q24 0 24 -40v-10q-132 -70 -336 -70q-96 0 -209 52t-238 123t-202 95t-153 76t-150 132t-121 199t-47 251zM278 683q0 -233 130 -425t350 -192 q192 0 305 167t113 401t-130 425t-350 191q-190 0 -304 -167t-114 -400z" />
<glyph unicode="R" horiz-adv-x="1320" d="M76 1283q0 25 8 33l240 -4l282 8q140 0 276 -80q68 -40 112 -114t44 -165t-63 -183t-171 -142q-20 -8 -12 -20q100 -210 230 -352q192 -210 312 -210q6 -12 6 -29t-6 -29q-22 -6 -54 -6q-280 0 -486 288q-32 44 -73 105t-60 88t-44 59q-43 55 -75 68.5t-66 13.5t-42 -1 q-24 -3 -24 -33v-294q0 -134 13 -167t74 -49t87 -16q8 0 8 -23t-4 -35q-200 10 -260 10l-244 -10q-6 6 -6 34t6 28q28 0 78 12t62 33t12 185v756q0 118 -14 172q-6 16 -59 30t-79 14q-8 0 -8 25zM410 756q0 -58 174 -58h50q70 0 145 70t75 186q0 278 -280 278 q-90 0 -140 -14q-16 -4 -20 -63t-4 -157v-242z" />
<glyph unicode="S" horiz-adv-x="982" d="M82 356q0 12 34 12t48 -18q68 -288 332 -288q100 0 170 60t70 170q0 114 -83 177q-54 41 -109.5 71t-93.5 52t-61 36t-76 49t-77 62t-56 66q-58 71 -58 175q0 154 118 253t274 99q80 0 126 -11t93 -24t83 -21q24 -106 24 -286q0 -14 -34 -14t-38 20q-10 88 -85 171 t-189 83t-163 -60t-49 -148q0 -62 42 -131q40 -66 238 -179q106 -63 140 -86.5t81 -62.5t68 -69q59 -84 59 -168q0 -160 -125 -263t-293 -103q-110 0 -224 27t-136 31q-50 246 -50 318z" />
<glyph unicode="T" horiz-adv-x="1338" d="M56 1056l38 286q88 -22 138 -22l438 -8l440 8q50 0 138 22l38 -286q-14 -14 -40 -14t-28 10q-28 112 -69 145t-155 33q-212 0 -220 -30q-18 -64 -18 -200v-722q0 -116 18 -186q4 -14 56 -27t72 -13q8 0 8 -23t-4 -35q-200 10 -221 10t-251 -10q-8 8 -8 33t8 25 q26 0 77 12t57 28q14 54 14 178v724q0 174 -17 205t-217 31q-114 0 -155 -33t-69 -145q-2 -10 -28 -10t-40 14z" />
<glyph unicode="U" horiz-adv-x="1438" d="M66 1291q0 25 8 33q230 -10 251 -10t221 10q4 -12 4 -35t-8 -23q-20 0 -72 -14t-56 -28q-18 -70 -18 -186v-446q0 -226 96 -360t272 -134q342 0 342 450v500q0 122 -14 176q-6 16 -69 31t-89 15q-8 0 -8 23t8 31q156 -12 236 -12l224 12q4 -12 4 -33t-8 -21 q-20 0 -87 -16t-71 -30q-16 -62 -16 -186v-486q0 -310 -130 -431t-369 -121t-367 140t-128 452v454q0 124 -14 178q-6 16 -57 29t-77 13q-8 0 -8 25z" />
<glyph unicode="V" horiz-adv-x="1418" d="M34 1291q0 25 8 33q160 -10 219 -10t259 10q4 -8 3 -33t-7 -25q-48 0 -83 -20t-35 -46q0 -58 252 -674q54 -136 86 -212q6 -10 17 -5t15 15l300 724q38 98 38 133t-32 55q-48 30 -108 30q-8 0 -8 25t8 33q186 -10 201 -10t215 10q4 -12 4 -35t-8 -23q-90 0 -120 -56 q-46 -84 -98 -206l-400 -956q-26 -66 -70 -66q-14 0 -20 12l-410 1034q-50 132 -90 192q-14 22 -58 34t-70 12q-8 0 -8 25z" />
<glyph unicode="W" horiz-adv-x="2152" d="M32 1291q0 25 8 33q230 -10 246 -10t216 10q4 -8 3 -33t-7 -25q-45 0 -72.5 -18t-27.5 -40q0 -60 46 -148l414 -820q6 -10 16 -5t14 15l166 346l-210 432q-58 118 -116 192q-16 20 -54 33t-62 13q-8 0 -8 25t8 33q230 -10 245 -10t215 10q4 -8 3 -33t-7 -25 q-42 0 -70 -17t-28 -41q0 -52 46 -148l132 -270l140 294q28 62 28 116q0 34 -43 50t-75 16q-8 0 -8 25t8 33q160 -10 185 -10t225 10q4 -8 3 -33t-7 -25q-20 0 -69 -16t-77 -50t-108 -196l-154 -316l218 -448q12 -22 24 10l358 822q34 82 34 121t-41 56t-73 17q-8 0 -8 25 t8 33q160 -10 211 -10t191 10q4 -12 4 -35t-8 -23q-20 0 -64 -15t-66 -41q-58 -68 -116 -202l-424 -960q-30 -64 -78 -64q-12 0 -18 10l-244 500l-216 -446q-30 -64 -78 -64q-12 0 -18 10l-520 1034q-58 118 -116 192q-16 20 -54 33t-62 13q-8 0 -8 25z" />
<glyph unicode="X" horiz-adv-x="1376" d="M14 29q0 23 8 23q52 0 103 17t73 39l428 560l-280 428q-108 170 -244 170q-8 0 -8 25t8 33q246 -10 276 -10t230 10q4 -8 3 -33t-7 -25q-36 0 -78 -15t-42 -44t24 -65l230 -350q8 12 47 61t56 71t52 68t52 71t38 57q39 59 39 82.5t-41 43.5t-99 20q-8 0 -8 25t8 33 q186 -10 232 -10t246 10q4 -8 3 -33t-7 -25q-28 0 -100 -16t-92 -42l-376 -492l384 -584q26 -40 83 -60t113 -20q10 0 10 -25t-4 -33q-200 10 -211 10t-291 -10q-8 8 -8 33t8 25q28 0 72 16t44 40q0 8 -10 24l-300 458q-328 -440 -328 -480q0 -25 43 -41.5t93 -16.5 q8 0 8 -26t-4 -32q-186 10 -229 10t-243 -10q-4 12 -4 35z" />
<glyph unicode="Y" horiz-adv-x="1298" d="M30 1293q0 23 8 31q192 -12 228 -12t276 12q4 -8 3 -31t-7 -23q-34 0 -77 -17t-43 -45t22 -66l224 -424q10 -10 20 4q272 412 272 482q0 22 -40 44t-98 22q-8 0 -8 23t8 31q222 -12 260 -12t104 6t84 6q4 -12 4 -33t-8 -21q-24 0 -84 -18t-80 -44q-76 -118 -221 -358 t-145 -268v-304q0 -124 16 -186q4 -14 54 -29t68 -15q8 0 8 -21t-4 -33q-200 10 -215 10t-245 -10q-8 8 -8 31t8 23q24 0 73 14t55 30q16 62 16 192v250q0 28 -43 111t-162 298t-136 238t-44 42t-71 33t-64 14q-8 0 -8 23z" />
<glyph unicode="Z" horiz-adv-x="1200" d="M58 978q54 248 66 352q20 -6 145 -12t159 -6h218q140 0 420 20q6 -2 13 -26t7 -40l-748 -1114q-14 -20 -14 -30q0 -20 28 -20h452q144 0 209 86q50 66 83 156q4 6 31 6t45 -18q-64 -208 -88 -332h-992q-16 18 -16 47t8 39l766 1130h-424q-132 0 -189 -55t-95 -193 q-2 -8 -34 -8t-50 18z" />
<glyph unicode="[" horiz-adv-x="722" d="M242 -158v1592q0 46 38 46q141 0 225.5 9t95.5 9t11 -34t-36 -52q-94 -22 -202 -22q-8 0 -14 -12v-1476q2 -16 14 -16q104 0 204 -34q24 -8 24 -44q0 -22 -10 -32l-2 -4q-146 24 -310 24q-38 0 -38 46z" />
<glyph unicode="\" horiz-adv-x="860" d="M72 1510q14 12 42 12q78 0 98 -44l574 -1452q6 -12 6 -40q0 -54 -46 -64l-48 4z" />
<glyph unicode="]" horiz-adv-x="722" d="M114 1464.5q0 33.5 10 33.5h2q156 -18 320 -18q36 0 36 -46v-1592q0 -46 -36 -46q-144 0 -270 -18l-42 -6q-12 2 -12 23t12 41l18 16q92 34 200 34q12 0 12 12l2 4v1472q-2 16 -14 16q-107 0 -176 16l-26 6l-2 2q-34 17 -34 50.5z" />
<glyph unicode="^" horiz-adv-x="890" d="M142 998q2 6 50 51t114 127t94 143t36 61q31 0 48 -41q23 -55 72.5 -122t89.5 -109t71 -73t33 -35q0 -10 -8 -30t-18 -20q-24 0 -117 80t-163 164q-64 -82 -157 -163t-119 -81q-18 0 -26 48z" />
<glyph unicode="_" horiz-adv-x="936" d="M0 -66q10 92 30 92h898q8 0 8 -13t-11 -53q-13 -46 -19 -46h-892q-14 0 -14 20z" />
<glyph unicode="`" horiz-adv-x="654" d="M208 1326q0 20 25 34t66 14t59 -18q74 -87 130 -178.5t56 -97.5q0 -26 -25 -26t-168 111t-143 161z" />
<glyph unicode="a" horiz-adv-x="846" d="M78 182q0 151 245 237q37 13 97 33t81 28t21 32v150q0 64 -40 99t-98 35t-98 -41t-40 -109t-82 -68q-56 0 -78 38q0 86 126 171t246 85t168 -53t48 -171v-462q0 -42 22 -70t55 -28t75 28q8 0 8 -21t-10 -37q-82 -70 -134 -70t-94 38t-58 80q-2 0 -15 -13t-35 -30t-51 -35 q-68 -42 -153.5 -42t-145.5 49t-60 147zM246 208q0 -50 34 -79t88 -29t104 33t50 67v206q-16 -8 -78 -28t-97 -35t-68 -50t-33 -85z" />
<glyph unicode="b" horiz-adv-x="998" d="M14 1285q0 27 12 27q204 20 278 76h4q8 0 16 -11t10 -21q-22 -64 -22 -174v-350q0 -22 4 -22t20 11t74 33t102 22q192 0 301 -131t109 -279q0 -190 -141 -334t-311 -144q-74 0 -141 13t-81 13t-41 -11t-33 -11t-23 6t-17 11t6 36q18 93 18 225v828q0 68 -12 128 q-10 32 -102 32h-18q-12 0 -12 27zM312 192q0 -62 59 -91t137 -29q114 0 178 108t64 255t-83 245t-219 98q-56 0 -96 -31t-40 -89v-466z" />
<glyph unicode="c" horiz-adv-x="810" d="M74 420q0 182 100 317t304 135t288 -102q0 -134 -74 -134q-34 0 -52 15t-46 55q-62 92 -146 92t-151 -78t-67 -235t79 -263t212 -106t245 80q12 0 12 -21t-12 -41q-40 -56 -118 -101t-170 -45q-166 0 -285 125t-119 307z" />
<glyph unicode="d" horiz-adv-x="994" d="M76 407q0 179 137 326t309 147q86 0 150 -34q14 0 14 36v216q0 68 -12 128q-10 32 -102 32h-18q-12 0 -12 27t12 27q204 20 278 76h4q8 0 16 -11t10 -21q-22 -64 -22 -174v-900q0 -96 12 -152q10 -34 96 -34l18 -2q6 -2 6 -28t-12 -26q-125 -8 -244 -48l-18 -4 q-12 0 -12 34v24q0 12 -8 8q-112 -62 -212 -62q-166 0 -278 118t-112 297zM248 446q0 -142 78 -249t216 -107q68 0 106 31t38 83v476q0 42 -45 79t-153 37t-174 -104t-66 -246z" />
<glyph unicode="e" horiz-adv-x="860" d="M74 433q0 195 113 317t283 122q92 0 162 -35t107 -90q71 -106 71 -225q0 -40 -12 -49t-46 -9h-504q-16 0 -16 -10q0 -126 76 -232t211 -106t247 80q12 0 12 -21t-12 -41q-40 -56 -118 -101t-170 -45q-166 0 -285 125t-119 320zM236 562q0 -14 12 -14h390q10 0 10 20 q0 64 -54 147t-151 83t-152 -89t-55 -147z" />
<glyph unicode="f" horiz-adv-x="602" d="M52 29q4 23 8 23q24 0 68 13t48 27q20 78 20 178v460q0 14 -10 14h-106q-6 0 -6 15t32 47t68 32h12q10 0 10 12v26q0 210 125 362t271 152t192 -78q0 -126 -72 -126q-26 0 -50 31t-55 63t-75 32q-88 0 -136 -108t-48 -254v-102q0 -10 10 -10h222q10 0 10 -23t-24 -71 h-206q-12 0 -12 -12v-462q0 -108 18 -178q4 -14 49 -27t63 -13q6 0 8 -24t-2 -34q-200 10 -210 10t-214 -10q-9 9 -9 24q0 5 1 11z" />
<glyph unicode="g" horiz-adv-x="948" d="M58 -226q0 118 196 206q-54 8 -100 50t-46 98t45 112t101 92q-60 22 -111 95t-51 157q0 118 99 199t243 81q74 0 170 -26t158 -26h116q12 -4 12 -41t-12 -37h-142q-8 0 -8 -6l20 -48q22 -48 22 -96q0 -108 -96 -194t-236 -86q-64 0 -112 8q-26 -14 -55 -50t-29 -64 t16 -45t46 -24q56 -13 95 -13h43q248 -4 348 -51t100 -141q0 -154 -130 -265t-334 -113h-10q-136 0 -245 54q-113 56 -113 174zM198 -188q0 -86 89 -139t203 -53t191 64t77 147t-82 112t-326 29q-4 0 -9 -3t-21 -10t-20 -9t-18 -11t-19 -12t-17 -12t-16 -16t-12 -17t-11 -20 q-9 -30 -9 -50zM246 588q0 -88 57 -152t134 -64t128 60t51 148t-57 152t-134 64t-128 -60t-51 -148z" />
<glyph unicode="h" horiz-adv-x="1060" d="M36 27q0 25 8 25q24 0 71 13t51 27q14 58 14 138v868q0 68 -12 128q-10 32 -102 32h-18q-12 0 -12 27t12 27q182 18 278 76h4q8 0 16 -11t10 -21q-22 -64 -22 -174v-438q0 -8 3 -8t7 4q44 48 125 92t155 44q134 0 192 -96t58 -296v-216q0 -114 16 -176q4 -14 52 -27 t68 -13q6 0 8 -24q1 -8 1 -14q0 -13 -3 -20q-200 10 -210 10t-214 -10q-8 8 -8 33t8 25q24 0 67 13t47 27q14 58 14 140v212q0 184 -51 247t-157 63q-60 0 -119 -47t-59 -83v-354q0 -116 16 -178q4 -14 52 -27t68 -13q6 0 8 -24t-2 -34q-200 10 -213 10t-219 -10q-8 8 -8 33 z" />
<glyph unicode="i" horiz-adv-x="538" d="M64 27q0 25 8 25q24 0 71 13t51 27q14 58 14 140v378q0 78 -24 105t-53 36t-48 9t-19 4q0 48 12 50q246 37 280 54h6q8 0 10 -17t-4 -61t-6 -108v-412q0 -116 16 -178q4 -14 52 -27t68 -13q6 0 8 -24q1 -8 1 -14q0 -13 -3 -20q-200 10 -214 10t-218 -10q-8 8 -8 33z M170 1186q0 42 29 71t71 29t71 -29t29 -71t-29 -71t-71 -29t-71 29t-29 71z" />
<glyph unicode="j" horiz-adv-x="476" d="M-48 -418l24 12q59 29 118 122q32 50 54 148t22 226v520q0 78 -24 105t-53 36t-48 9t-19 4q0 48 12 50q212 32 245 42t41 12q8 0 10 -17v-10q0 -18 -4 -51q-6 -44 -6 -108v-546q0 -254 -78 -376q-50 -78 -127 -138t-141 -84q-18 12 -24 26q-4 8 -4 13q0 3 2 5zM118 1186 q0 42 29 71t71 29t71 -29t29 -71t-29 -71t-71 -29t-71 29t-29 71z" />
<glyph unicode="k" horiz-adv-x="992" d="M28 27q0 25 8 25q24 0 71 13t51 27q14 58 14 140v866q0 68 -12 128q-10 32 -102 32h-18q-12 0 -12 27t12 27q182 18 278 76h4q8 0 16 -11t10 -21q-22 -64 -22 -174v-700q42 10 50 18q44 38 92 78l72 60q63 52 73.5 68t10.5 28q0 24 -44 28t-46 8q-14 40 2 46h158 q50 0 220 10q18 -9 10 -32.5t-12 -23.5q-26 0 -74 -12t-73 -27t-121 -90t-166 -147q58 -62 142 -157q174 -197 210 -228t88 -46t74 -15q8 0 8 -25t-2 -29q-200 10 -211 10t-215 -10q-8 8 -8 31t8 23q20 0 46 8t26 15t-2 9l-292 316l-24 -6v-120q4 -132 16 -178q4 -14 52 -27 t68 -13q6 0 8 -24t-2 -34q-200 10 -213 10t-219 -10q-8 8 -8 33z" />
<glyph unicode="l" horiz-adv-x="502" d="M30 27q0 25 8 25q24 0 71 13t51 27q14 58 14 140v866q0 68 -12 128q-10 32 -102 32h-18q-12 0 -12 27t12 27q204 20 278 76h4q8 0 16 -11t10 -21q-22 -64 -22 -174v-912q0 -116 16 -178q4 -14 52 -27t68 -13q6 0 8 -24q1 -8 1 -14q0 -13 -3 -20q-200 10 -213 10t-219 -10 q-8 8 -8 33z" />
<glyph unicode="m" horiz-adv-x="1600" d="M54 27q0 25 8 25q24 0 71 13t51 27q14 58 14 140v378q0 78 -24 105t-53 36t-48 9t-19 4q0 48 12 50q212 32 245 42t41 12q8 0 10 -17t-3 -49t-5 -48t3 -16t7 4q46 48 125 91t155 43t129 -43t73 -99q150 142 310 142q252 0 252 -384v-222q0 -116 16 -178q4 -14 52 -27 t68 -13q6 0 8 -24q1 -8 1 -14q0 -13 -3 -20q-200 10 -213 10t-219 -10q-8 8 -8 33t8 25q24 0 71 13t51 27q14 58 14 128v226q0 308 -202 308q-74 0 -128 -43t-54 -71l2 -8v-10q8 -50 8 -144v-226q0 -98 16 -160q4 -14 52 -27t68 -13q6 0 8 -24t-2 -34q-200 10 -213 10 t-219 -10q-8 8 -8 33t8 25q24 0 71 13t51 27q14 58 14 140v204q0 318 -192 318q-60 0 -121 -45t-61 -87v-352q0 -116 16 -178q4 -14 52 -27t68 -13q6 0 8 -24t-2 -34q-200 10 -213 10t-219 -10q-8 8 -8 33z" />
<glyph unicode="n" horiz-adv-x="1086" d="M58 27q0 25 8 25q24 0 71 13t51 27q14 58 14 140v378q0 78 -24 105t-53 36t-48 9t-19 4q0 48 12 50q212 32 245 42t41 12q8 0 10 -17t-3 -49t-5 -48t3 -16t7 4q46 48 125 91t151 43q140 0 196 -100t56 -324v-182q0 -116 16 -178q4 -14 52 -27t68 -13q6 0 8 -24 q1 -8 1 -14q0 -13 -3 -20q-200 10 -209 10t-215 -10q-8 8 -8 33t8 25q24 0 67 13t47 27q14 58 14 140v200q0 186 -48 254t-156 68q-64 0 -123 -47t-59 -85v-352q0 -116 16 -178q4 -14 52 -27t68 -13q6 0 8 -24t-2 -34q-200 10 -213 10t-219 -10q-8 8 -8 33z" />
<glyph unicode="o" horiz-adv-x="1020" d="M74 433q0 185 124 313t307 128t311 -130t128 -313t-125 -314t-307 -131t-310 131t-128 316zM246 450q0 -152 85 -269t195 -117t178 100t68 251t-86 266t-196 115t-177 -97t-67 -249z" />
<glyph unicode="p" horiz-adv-x="1022" d="M34 -419q0 25 8 25q24 0 71 13t51 27q14 58 14 140v826q0 78 -24 105t-53 36t-48 9t-19 4q0 48 12 50q212 32 245 42t41 12q6 0 6 -11l-4 -45v-12q28 20 93 45t111 25q192 0 300 -129t108 -275q0 -192 -134 -338t-304 -146q-77 0 -104 11q-48 19 -64 27q-8 -10 -8 -26 v-172q0 -116 16 -178q4 -14 52 -27t68 -13q6 0 8 -25t-2 -33q-200 10 -213 10t-219 -10q-8 8 -8 33zM332 196q0 -54 58 -91t126 -37q118 0 188 106t70 256t-89 247t-211 97q-62 0 -102 -33t-40 -95v-450z" />
<glyph unicode="q" horiz-adv-x="978" d="M76 413q0 169 137 318t317 149q74 0 144 -11t84 -11t41 8t32 8t23 -6t18 -11t-8 -39q-24 -102 -24 -232v-788q0 -92 16 -154q4 -14 52 -27t68 -13q6 0 8 -24q1 -8 1 -14q0 -13 -3 -20q-200 10 -213 10t-219 -10q-8 8 -8 33t8 25q24 0 71 13t51 27q14 58 14 140v248 q0 10 -3 17t-11 3q-120 -60 -192 -60q-174 0 -289 126t-115 295zM248 451q0 -177 88 -269t214 -92q46 0 91 27t45 93v464q0 54 -50 88t-139 34t-148 -62q-101 -106 -101 -283z" />
<glyph unicode="r" horiz-adv-x="760" d="M66 27q0 25 8 25q24 0 71 13t51 27q14 58 14 140v378q0 78 -24 105t-53 36t-48 9t-19 4q0 48 12 50q212 32 245 42t41 12q8 0 10 -17t0 -25l-12 -100q36 54 99 101t125 47q118 0 156 -58q0 -70 -22 -102t-56 -32t-64 34t-87 34t-103 -58t-46 -122v-300q0 -116 16 -178 q4 -14 53 -27t69 -13q6 0 8 -24t-2 -34q-200 10 -214 10t-220 -10q-8 8 -8 33z" />
<glyph unicode="s" horiz-adv-x="718" d="M82 224q16 12 35 12t21 -12q12 -60 75 -117t132 -57t110 35t41 85t-13 79t-42 52t-54 38t-71 39t-68 38q-156 90 -156 206t87 184t203 68q44 0 111 -11t93 -15q20 -92 24 -204q0 -10 -27 -10t-29 14q-10 56 -57 106t-107 50q-144 0 -144 -118q0 -61 31 -89.5t43 -37.5 t53 -32t50 -28t48 -28t55 -33t47 -34t45 -43q40 -54 40 -107q0 -118 -92 -197t-216 -79q-72 0 -140 17t-94 21q-12 32 -23 100t-11 108z" />
<glyph unicode="t" horiz-adv-x="628" d="M34 775q0 27 2 29q58 26 126 106q33 39 62.5 89.5t29.5 52.5q60 0 60 -10v-198l270 -2q16 0 16 -27t-20 -67h-266v-490q0 -80 41 -128t104 -48t127 38q6 4 18 -17q10 -18 10 -22q0 -18 -92 -64q-62 -31 -145 -31t-150 66t-67 188v508h-116q-10 0 -10 27z" />
<glyph unicode="u" horiz-adv-x="1034" d="M58 764q0 48 12 50q212 32 245 42t41 12q8 0 10 -17v-9q0 -19 -5 -60q-7 -52 -7 -104v-270q0 -154 46 -227t150 -73q60 0 114 47t54 81v374q0 78 -24 105t-53 36t-48 9t-19 4q0 48 12 50q212 32 245 42t41 12q8 0 10 -17v-9q0 -19 -5 -60q-7 -52 -7 -100v-400 q0 -86 14 -152q10 -34 100 -34l18 -2q6 -2 6 -15t-5 -26t-11 -13q-123 -8 -240 -52l-18 -4q-16 0 -16 32v102l-4 10q-132 -142 -262 -142q-74 0 -127 37t-78 98q-45 110 -45 237v252q0 78 -24 105t-53 36t-48 9t-19 4z" />
<glyph unicode="v" horiz-adv-x="986" d="M-4 835q0 25 8 33q206 -10 208 -10l200 10q4 -8 1 -33t-9 -25q-98 0 -98 -34q0 -4 2 -8l240 -542l202 460q16 38 16 60q0 64 -144 64q-8 0 -8 25t8 33q110 -10 190 -10l200 10q4 -12 4 -35t-14 -23q-28 0 -74 -16t-62 -52l-318 -718q-4 -14 -24 -30t-34 -16t-18 8 q-34 74 -149 344t-201 440q-20 40 -118 40q-8 0 -8 25z" />
<glyph unicode="w" horiz-adv-x="1468" d="M18 835q0 25 8 33q150 -10 198 -10l200 10q4 -8 3 -33t-7 -25q-100 0 -100 -46q0 -7 87 -193.5t151 -330.5q34 98 76 216q76 214 76 225q0 26 -28 71l-10 18q-27 40 -102 40q-8 0 -8 25t8 33q150 -10 200 -10t190 10q4 -12 4 -34t-6 -24q-96 0 -96 -78q0 -42 220 -492 q30 92 76 222q88 249 88 278q0 70 -132 70h-8q-8 0 -8 25t8 33q150 -10 190 -10t190 10q4 -12 4 -35t-10 -23q-26 0 -70 -17t-58 -55l-262 -716q-16 -44 -56 -44q-20 0 -24 8l-246 588l-202 -552q-6 -18 -23 -31t-34 -13t-21 8q-48 108 -109 259q-133 328 -241 521 q-26 44 -108 44q-8 0 -8 25z" />
<glyph unicode="x" horiz-adv-x="934" d="M8 31q0 21 8 21q134 20 180 84l208 278l2 12q0 4 -4 12l-206 302q-18 26 -74 48t-90 22l-6 30q4 20 8 28q194 -10 199 -10t211 10q2 -8 2 -33t-6 -25q-80 0 -80 -34q0 -8 10 -24l130 -202q14 22 42 63t45 66q45 66 45 89.5t-23 30.5t-52 8t-34 3t-5 26t6 32 q204 -10 210 -10t182 10q4 -20 4 -39t-6 -19q-132 -16 -174 -68l-192 -250q-4 -6 -4 -15t6 -21l214 -316q54 -80 168 -88q6 0 6 -24t-8 -34q-186 10 -190 10t-220 -10q-4 20 -4 39t6 19q84 6 84 36q0 4 -4 12l-152 240l-138 -206q-14 -22 -14 -38q0 -36 100 -44h10 q6 0 6 -25t-8 -33q-194 10 -199 10t-195 -10q-4 16 -4 37z" />
<glyph unicode="y" horiz-adv-x="908" d="M4 835q0 25 8 33q206 -10 238 -10t172 10q4 -12 4 -35t-8 -23q-16 0 -53 -14t-41 -28v-4q0 -36 214 -522l152 438q14 42 14 67t-31 44t-83 19q-8 0 -8 25t8 33l78 -6q52 -4 98 -4t98 4l78 6q4 -12 4 -35t-8 -23q-26 0 -71 -18t-59 -58l-358 -966q-46 -124 -104 -173 t-103 -49t-65 26t-20 61t28 55q166 0 220 172l24 72q14 42 22 68l-286 700q-22 48 -40 67t-55 31t-59 12q-8 0 -8 25z" />
<glyph unicode="z" horiz-adv-x="828" d="M58 46q0 6 2 8l514 714l-298 2q-40 0 -66 -19t-35 -39t-18 -51t-13 -40t-36 -9t-32 7t14 94t18 147q118 -12 190 -12h244q112 0 244 16q6 -10 6 -48l-508 -694q-14 -20 -14 -31t24 -11h262q84 0 123 42t52 91t25 49q44 0 58 -24l-42 -238h-674q-40 24 -40 46z" />
<glyph unicode="{" horiz-adv-x="648" d="M126 620q0 24 8 38q58 14 89 26t61 45t30 83t-50 162t-50 176q0 164 92 257t226 93q8 0 8 -27t-22 -31q-58 -4 -128 -66t-70 -141t50 -191t50 -201t-55 -157t-113 -70q60 -2 115 -66t55 -153t-51 -190t-51 -180t71 -147t127 -72q22 -4 22 -31t-8 -27q-130 0 -222 103 t-92 257q0 60 48 169t48 147t-9 58t-17 32t-35 25t-35 17t-45 14t-41 12q-6 12 -6 36z" />
<glyph unicode="|" horiz-adv-x="528" d="M200 -230v1744q-2 12 10 16q48 14 82 14t34 -8v-4l2 -1744q0 -10 -53 -22t-64 -12t-11 16z" />
<glyph unicode="}" horiz-adv-x="650" d="M108 -223q0 27 22 31q56 4 127 72t71 147t-51 180t-51 190t55 153t115 66q-58 2 -113 70t-55 157t50 201t50 191t-70 141t-128 66q-22 4 -22 31t8 27q134 0 226 -93t92 -257q0 -64 -50 -176t-50 -162t30 -83t61 -45t89 -26q8 -14 8 -38t-6 -36q-110 -27 -138 -53 q-32 -29 -38 -50t-6 -57t48 -145t48 -169q0 -154 -92 -257t-222 -103q-8 0 -8 27z" />
<glyph unicode="~" horiz-adv-x="1152" d="M112 561q0 33 55 74t97 57t122 16t222 -53t236 -53q42 0 66 12t31 15t22 14t19 14q36 27 42 33q18 -10 18 -44t-54 -74t-95 -56t-121 -16t-222 53t-238 53q-60 0 -123 -42q-15 -10 -59 -46q-18 10 -18 43z" />
<glyph unicode="&#xa1;" horiz-adv-x="332" d="M50 746q0 48 33 83t81 35t82 -35t34 -83t-34 -81t-82 -33t-81 33t-33 81zM70 -338q0 36 9 122q25 240 53 690q2 30 10 41t38 25q10 4 17 -10t9 -34q25 -410 41.5 -593t16.5 -229t-29 -84t-74 -38t-68 37t-23 73z" />
<glyph unicode="&#xa2;" horiz-adv-x="928" d="M120 406q0 -192 112 -307t277 -115t303 150q12 12 12 27t-3 22t-5 11t-4 4t-13 -10t-31 -23t-46 -27q-63 -34 -144 -34q-150 0 -228 111t-78 273t66 237t150 75q42 0 77 -16t51 -33t33 -36t24 -28t10 -13t10 -11q27 -27 47 -27q72 0 72 126q-30 54 -117 81t-187 27 q-170 0 -279 -136t-109 -328zM392 -72l166 1020q70 0 70 -16l-166 -1022q-70 0 -70 18z" />
<glyph unicode="&#xa3;" horiz-adv-x="946" d="M90 589q0 31 12 49h534q10 0 10 -30t-30 -50h-516q-10 0 -10 31zM92 20q18 34 50 80t42 63t16 38t9 47t5 48t3 55t1 50v97l-18 348q0 188 101 306t263 118q104 0 154 -74q0 -118 -60 -118q-42 0 -86 54t-89 54t-77 -26t-45 -74q-21 -78 -21 -198l16 -372q0 -196 -90 -348 q46 18 124 18t188 -32t141 -32t54 18t35 37t30 53t22 40q12 0 25 -11t13 -25t-2 -18q-88 -232 -234 -232q-68 0 -202 37t-192 37t-138 -76q-18 0 -28 13t-10 25z" />
<glyph unicode="&#xa4;" horiz-adv-x="936" d="M48 308l108 102q-60 94 -60 214t76 222l-104 112q-8 8 4 25q31 44 84 57l104 -110q90 62 210 62t218 -82l118 110q8 8 25 -4q44 -31 57 -84l-120 -112q58 -96 58 -210t-66 -212l108 -116q8 -8 -4 -25q-31 -44 -84 -57l-104 110q-96 -70 -218 -70t-222 80l-106 -100 q-8 -8 -25 4q-44 31 -57 84zM242 628q0 -126 71 -225t163 -99t149 84t57 211t-71 227t-162 100t-149 -86t-58 -212z" />
<glyph unicode="&#xa5;" horiz-adv-x="1316" d="M46 1253q0 23 8 31q192 -12 220 -12t262 12q4 -8 3 -31t-7 -23q-34 0 -75 -16t-41 -43t20 -63l218 -412q10 -10 20 4q264 400 264 468q0 22 -38 42t-96 20q-8 0 -8 23t8 31q132 -12 179 -12t281 12q4 -12 4 -33t-8 -21q-26 0 -96 -17t-90 -41q-84 -130 -219 -356 t-135 -252v-56h184q10 0 10 -29t-12 -47h-182v-80h184q10 0 10 -29t-12 -47h-182q0 -130 14 -184q4 -14 52 -29t66 -15q8 0 8 -21t-4 -33q-196 10 -210 10t-234 -10q-8 8 -8 31t8 23q24 0 71 14t53 30q16 62 16 184h-184q-10 0 -10 29t12 47h182v80h-184q-10 0 -10 29t12 47 h182q0 28 -2 32q-8 36 -282 524q-36 70 -86 124q-18 18 -61 30t-67 12q-8 0 -8 23z" />
<glyph unicode="&#xa6;" horiz-adv-x="274" d="M74 -230v728q-2 12 10 16q48 14 81 14t33 -8v-4l2 -728q-23 -23 -104 -32l-12 -2q-10 0 -10 16zM74 767v739q-2 12 10 16q48 14 81 14t33 -8v-4l2 -730q-2 0 -4 -4t-6 -6t-14 -5q-26 -8 -59 -12.5t-38 -3.5t-5 4z" />
<glyph unicode="&#xa7;" horiz-adv-x="764" d="M52 690q0 164 118 248q-28 48 -28 98q0 128 84 197t210 69t174 -72l2 -26q0 -90 -62 -90q-26 0 -80 54t-102 54t-85 -32t-37 -100t48 -116t115 -79t135 -68t116 -113t48 -188q0 -164 -118 -246q28 -62 28 -119t-29 -111t-75 -81q-87 -51 -203.5 -51t-162.5 68l-2 28 q0 90 64 90q26 0 80 -53t106 -53t85 33t33 100t-48 115t-115 79t-135 67t-116 111t-48 187zM144 758q0 -70 51 -127t116 -87t141 -83t112 -115l21 21t11 13t6 11t6 12t4 13q4 16 4 34q0 78 -51 135t-117 88t-141 83t-111 114q-52 -42 -52 -112z" />
<glyph unicode="&#xa8;" horiz-adv-x="666" d="M54 1034q0 40 31 69t71 29t69 -30t29 -70t-30 -68t-70 -28t-70 29t-30 69zM420 1034q0 40 31 69t71 29t69 -30t29 -70t-30 -68t-70 -28t-70 29t-30 69z" />
<glyph unicode="&#xa9;" horiz-adv-x="1206" d="M56 684q0 226 160 386t386 160t387 -160t161 -386t-161 -386t-387 -160t-386 160t-160 386zM122 684q0 -200 141 -342t341 -142t342 142t142 342t-142 342t-342 142t-341 -142t-141 -342zM318 674q0 120 80 206t203 86t223 -38q32 -114 32 -122q0 -18 -32 -18q-6 0 -14 4 q-4 20 -18 40t-59 43t-117 23t-128 -62t-56 -160t66 -160t156 -62q143 0 158 92q2 12 4 12q36 0 40 -6q0 -10 -16 -65t-24 -59q-94 -38 -214 -38t-202 82t-82 202z" />
<glyph unicode="&#xaa;" horiz-adv-x="632" d="M56 634q0 83 109 139q37 19 61 27t67 23t57 19q12 2 12 20v116q0 36 -27 58t-68 22t-68 -28t-27 -73t-68 -45q-42 0 -42 22q0 60 85 119t171 59t120 -35t34 -109v-332q0 -28 14 -49t32 -21t30 6l20 10l6 4q6 -2 4 -11t-6 -29q-64 -46 -96 -46t-61 27t-39 55l-16 -14 q-90 -70 -155 -70t-107 34t-42 102zM176 653q0 -35 23 -55t58 -20t70 24t35 46v136q-14 -6 -54 -18t-64 -22t-46 -33t-22 -58z" />
<glyph unicode="&#xab;" horiz-adv-x="938" d="M54 489q0 29 16 47q256 154 412 310q46 -12 46 -38q0 -12 -18 -31t-74 -73t-124 -125t-82 -85l174 -180q20 -20 40 -39t31 -30l29.5 -29.5t15.5 -16.5q6 -7 6 -16t-6 -16t-12 -10t-16 -6t-12 -5q-10 20 -145 122t-267 186q-14 6 -14 35zM412 489q0 29 16 47 q256 154 412 310q46 -12 46 -38q0 -12 -18 -31t-74 -73t-124 -125t-82 -85l174 -180q20 -20 40 -39t31 -30l29.5 -29.5t15.5 -16.5q6 -7 6 -16t-6 -16t-12 -10t-16 -6t-12 -5q-10 20 -145 122t-267 186q-14 6 -14 35z" />
<glyph unicode="&#xac;" horiz-adv-x="1076" d="M58 748q10 92 30 92h888q24 0 24 -22v-480q-20 -20 -98 -30h-8q-8 0 -12 4t-2 8v388q0 20 -22 20h-788q-12 0 -12 20z" />
<glyph unicode="&#xad;" horiz-adv-x="750" d="M116 420q0 102 24 102h2l482 24h2q12 0 12 -31t-7 -58q-8 -29 -19 -37l-482 -22h-4t-6 6t-4 16z" />
<glyph unicode="&#xae;" horiz-adv-x="1208" d="M58 814q0 226 160 386t386 160t387 -160t161 -386t-161 -387t-387 -161t-386 161t-160 387zM124 814q0 -200 141 -342t341 -142t342 142t142 342t-142 341t-342 141t-341 -141t-141 -341zM350 560q0 10 4 10q10 0 32 6t24 12q6 18 6 50l-2 32v310q2 16 2 40t-6 42 q-2 6 -23 13t-31 7q-2 0 -2 11t2 13q38 -6 96 -6l148 8q66 0 127 -38t61 -119t-96 -123q-2 0 -2 -4q0 -24 140 -210q32 -42 80 -42q2 -4 2 -12q0 -16 -30 -16q-94 0 -145 43t-151 209q-10 16 -26 17t-38 -1q-4 0 -4 -14v-128q2 -60 8 -82q2 -6 23 -12t29 -6q2 0 3 -10 t-1 -14q-34 2 -110 2t-116 -2q-4 4 -4 14zM518 882q0 -26 94 -26q28 0 52 27t24 65q0 110 -100 110q-68 0 -68 -12l-2 -74v-90z" />
<glyph unicode="&#xaf;" horiz-adv-x="920" d="M1080 1118q0 74 24 74h416q10 0 10 -17t-7 -42t-15 -33h-416q-12 6 -12 18z" />
<glyph unicode="&#xb0;" horiz-adv-x="466" d="M36 1072q0 80 58 138t140 58t139 -58t57 -139t-58 -139t-139 -58t-139 59t-58 139zM110 1071q0 -51 37 -87t87 -36t86 36t36 88t-36 87t-87 35t-87 -36t-36 -87z" />
<glyph unicode="&#xb1;" horiz-adv-x="1066" d="M56 632q0 24 9 54t12 32t7 2h384q10 0 10 12v380q-2 10 10 14q54 16 82 16l20 -12v-400q0 -10 8 -10h400q16 0 16 -10q0 -16 -11 -56q-13 -46 -19 -46h-386q-8 0 -8 -6v-384q0 -17 -102 -34q-10 0 -10 16v398q0 10 -12 10h-398q-12 0 -12 24zM60 19q-10 18 3 59.5 t16 43.5t230 2h678q3 0 8 -6t2 -25t-7 -37t-8 -26q-7 -13 -16 -18h-900q-2 0 -6 7z" />
<glyph unicode="&#xb2;" horiz-adv-x="676" d="M54 539q0 19 8 35q16 18 61 66t71 76t66 74t64 79t49 70q49 73 49 122t-33 88t-101 39t-136 -82q-4 -4 -15 5t-20 23t-9 22t2 10q40 52 110 90t149 38t143 -62t64 -148q0 -109 -82 -202q-73 -83 -158.5 -154.5t-99.5 -83.5t-14 -18t4 -6h274q65 0 80 48l6 24q2 4 16 5 t22 -11q-8 -20 -42 -178l-250 2l-254 -2q-24 12 -24 31z" />
<glyph unicode="&#xb3;" horiz-adv-x="632" d="M54 546v14q0 30 16 52t43 22t69 -34t76 -34q70 0 123 45t53 123t-36 116t-94 38q-12 0 -104 -12q-18 18 -18 36t18 24q80 16 132 59t52 113q0 38 -31 61t-71 23t-71 -19t-50 -38t-28 -19t-19 34t-8 36q88 108 242 108q56 0 112 -43t56 -113q0 -42 -21 -75t-43 -49 t-68 -46q54 0 123 -55t69 -143q0 -126 -108 -201t-248 -75q-58 0 -106 17t-60 35z" />
<glyph unicode="&#xb4;" horiz-adv-x="920" d="M1012 1080q0 18 76 128t110 148q18 18 59 18t61 -11q30 -17 30 -37q0 -50 -143 -161t-168 -111t-25 26z" />
<glyph unicode="&#xb5;" horiz-adv-x="1018" d="M138 -380q0 64 13 360t29 428l-8 188v238q24 40 45 40t65 -28t44 -46q0 -92 -46 -308l-10 -46q0 -132 26 -225t76 -93q92 0 165 98t119 228v380q24 40 45 40t65 -28t44 -46q0 -92 -46 -308l-10 -46q-4 -312 116 -312q34 0 67 20t47 40q8 0 17 -16t9 -26q-20 -66 -73 -113 t-105 -47t-83 44t-42 92t-23 128q-118 -274 -300 -274q-54 0 -83 49q-9 15 -14 22t-12 26t-9 24q-18 45 -18 49q0 -126 12 -294t32 -272q-24 -40 -45 -40t-65 28t-44 46z" />
<glyph unicode="&#xb6;" horiz-adv-x="992" d="M92 954q0 140 106 245t236 105l222 -8l226 10q8 -8 8 -33t-8 -25q-26 0 -71 -12t-51 -30t-6 -206l2 -300q0 -12 10 -8l86 16q8 -16 8 -26q-4 -40 -40 -50l-52 -14q-10 -6 -10 -10q0 -466 14 -518q6 -16 55 -30t73 -14q8 0 8 -23t-8 -31q-228 12 -316 12t-244 -12 q-4 8 -3 31t7 23q18 0 68 15t54 29q10 42 10 276v202q0 14 -40 14q-158 0 -251 116t-93 256zM568 572l4 -474q0 -26 48 -26q14 0 27 9t13 19q8 90 8 490q0 8 -5 8t-14 -2q-30 -7 -55.5 -9.5t-25.5 -14.5zM568 676q0 -12 16 -12l74 12q10 0 10 12q0 460 -4 512q0 6 -16 14 t-30 8q-46 0 -46 -24q-4 -318 -4 -522z" />
<glyph unicode="&#xb7;" horiz-adv-x="406" d="M94 528q0 48 34 82t82 34t82 -34t34 -82t-34 -83t-82 -35t-82 35t-34 83z" />
<glyph unicode="&#xb8;" horiz-adv-x="920" d="M1236 -258q0 10 9 19t20 9t33 -13t51 -13t52 19t23 49t-20 48t-40 18t-54 -14q-4 0 -13 10t-4 19t29 46t32 53h42l-36 -46h50q38 0 63 -29t25 -69q0 -68 -54 -110t-115 -42t-87 18z" />
<glyph unicode="&#xb9;" horiz-adv-x="544" d="M48 1140.5q0 11.5 6 15.5q174 70 270 132l30 16h4q8 0 24 -46q-18 -84 -18 -162v-416q0 -58 16 -94q4 -10 45 -19t57 -9q8 0 8 -24t-2 -28l-196 6l-200 -6q-8 4 -8 27t8 23q22 0 65 9t47 19q12 32 12 62v390q0 64 -9 83t-27 19t-104 -30q-2 0 -7 3t-8 4t-6 5 q-7 9 -7 20.5z" />
<glyph unicode="&#xba;" horiz-adv-x="740" d="M58 800q0 126 92 217t222 91t220 -92t90 -218t-89 -215t-219 -89t-223 90t-93 216zM196 814q0 -102 51 -187t135 -85t123 73t39 175t-47 185t-131 83t-127 -71t-43 -173z" />
<glyph unicode="&#xbb;" horiz-adv-x="942" d="M54 806q0 10 6 17t12 10q26 13 28 13q156 -156 410 -310q18 -20 18 -48t-16 -34q-200 -128 -351 -254q-43 -36 -59 -54q-46 12 -46 36q0 14 10 24l21 21q11 11 22 21t30 29l211 217q-14 14 -82 85t-125 127t-73 73t-16 27zM412 810q0 6 6 13t12 10q26 13 28 13 q152 -152 412 -310q16 -18 16 -47t-14 -35q-208 -133 -353 -254q-43 -36 -59 -54q-46 12 -46 36q0 16 23 37q45 41 99 95l174 180q-14 14 -82 85t-140 141t-74 77t-2 13z" />
<glyph unicode="&#xbc;" horiz-adv-x="1340" d="M46 1112.5q0 11.5 19 18.5q108 40 269 145h6q6 0 22 -48q-18 -82 -18 -160v-392q0 -58 16 -94q4 -10 45 -20t57 -10q10 0 10 -23t-2 -27l-190 6l-192 -6q-8 4 -8 26t8 22q22 0 61 10t43 20q12 32 12 62v366q0 80 -11 91t-22 11t-97 -30q-2 0 -7 3t-8 4t-6 5q-7 9 -7 20.5 zM338 20l696 1264q4 6 22 6t36 -19q25 -26 20 -35v-2l-696 -1262q0 -4 -8 -4q-38 0 -68 38zM732 282l392 498q12 16 46 16t34 -16v-454q0 -8 10 -8h54q24 0 24 -43t-8 -43l-4 -2l-70 -2q-6 0 -6 -10v-218q-10 -10 -53 -10t-59 2q-26 3 -26 16v216q-2 6 -10 6h-298 q-24 30 -26 52zM850 321q6 -5 8 -5h196q12 0 12 10v258q-2 8 -10 8q-50 -60 -110 -138t-96 -122q-6 -6 0 -11z" />
<glyph unicode="&#xbd;" horiz-adv-x="1442" d="M46 1112.5q0 11.5 19 18.5q108 40 269 145h6q6 0 22 -48q-18 -82 -18 -160v-392q0 -58 16 -94q4 -10 45 -20t57 -10q10 0 10 -23t-2 -27l-190 6l-192 -6q-8 4 -8 26t8 22q22 0 61 10t43 20q12 32 12 62v366q0 80 -11 91t-22 11t-97 -30q-2 0 -7 3t-8 4t-6 5q-7 9 -7 20.5 zM336 14v6l2 2l696 1264q2 4 10 4t39 -17t31 -29q0 -4 -2 -6v-2l-696 -1264q0 -4 -8 -4q-38 0 -68 38q-4 4 -4 8zM828 33q0 21 6 33q10 12 61 66t71 77t64 73t65 80t48 70q49 73 49 122.5t-32 87.5t-79 38t-89 -23t-68 -57q-4 -6 -16 -2t-14 10q-16 46 -12 50q40 52 109 90 t148 38t143 -62t64 -148q0 -109 -82 -202q-72 -82 -158 -154t-99 -84t-13 -18t4 -6h262q36 0 57 21t28 42t9 21q28 0 40 -16q-6 -20 -40 -180h-504q-22 12 -22 33z" />
<glyph unicode="&#xbe;" horiz-adv-x="1388" d="M50 546v14q0 30 17 52t43 22t68 -34t76 -34q70 0 124 45t54 123t-37 116t-95 38q-8 0 -102 -12q-18 18 -18 36t18 24q80 16 131 59t51 113q0 38 -30 61t-70 23t-72 -19t-51 -38t-28 -19t-18 32t-7 38q88 108 242 108q56 0 112 -43t56 -113q0 -42 -22 -75t-43 -49t-69 -46 q54 0 123 -55t69 -143q0 -126 -108 -201t-248 -75q-58 0 -106 17t-60 35zM384 14l698 1270q2 6 10 6q30 0 62 -34q11 -11 6 -20v-2l-696 -1262q0 -4 -14 -4t-40 18t-26 28zM780 282l392 498q12 16 46 16t34 -16v-454q0 -8 10 -8h54q24 0 24 -43t-8 -43l-4 -2l-70 -2 q-6 0 -6 -10v-218q-10 -10 -53 -10t-59 2q-26 3 -26 16v216q-2 6 -10 6h-298q-24 30 -26 52zM898 321q6 -5 8 -5h196q12 0 12 10v258q-2 8 -10 8q-50 -60 -110 -138t-96 -122q-6 -6 0 -11z" />
<glyph unicode="&#xbf;" horiz-adv-x="620" d="M48 -84q0 106 45 175t157 133q42 24 95 66t67 68t14 128q0 26 33 26t33 -16l2 -188q0 -52 -11 -78t-16 -40t-21 -30t-21 -24t-26 -22t-25 -18t-27 -19t-49 -31t-47 -30t-51 -39q-52 -43 -52 -97q0 -86 48 -132t110 -46t99 7t63 7t57 -18t31 -61t-16 -69q-40 -20 -106 -20 t-154 42t-160 131t-72 195zM336 742q0 48 34 83t82 35t82 -35t34 -83t-34 -81t-82 -33t-82 33t-34 81z" />
<glyph unicode="&#xc0;" d="M40 27q0 25 8 25q24 0 62 10t52 28q42 54 94 188l348 894q4 10 11 32t11 33t12 28t14 25t15 18q16 18 45 18l18 -6l400 -1056q36 -94 53 -134t67 -59t74 -19q8 0 8 -23t-4 -35q-200 10 -211 10t-241 -10q-8 8 -7 33t9 25q24 0 60 10t42 26q4 16 4 37q0 44 -20 111 l-90 248q-10 14 -139 14t-279 -10l-10 -6l-86 -220q-34 -100 -34 -133t17 -46t57 -22t58 -9q6 0 7 -24t-3 -34q-200 10 -222 10t-192 -10q-8 8 -8 33zM404 1662q0 22 26 41t64 19t50 -6q54 -40 146 -130t92 -104q0 -26 -20 -26q-38 0 -198 80t-160 126zM494 606q0 -8 4 -8 q104 -4 167 -4t157 6l6 10l-162 442z" />
<glyph unicode="&#xc1;" d="M40 27q0 25 8 25q24 0 62 10t52 28q42 54 94 188l348 894q4 10 11 32t11 33t12 28t14 25t15 18q16 18 45 18l18 -6l400 -1056q36 -94 53 -134t67 -59t74 -19q8 0 8 -23t-4 -35q-200 10 -211 10t-241 -10q-8 8 -7 33t9 25q24 0 60 10t42 26q4 16 4 37q0 44 -20 111 l-90 248q-10 14 -139 14t-279 -10l-10 -6l-86 -220q-34 -100 -34 -133t17 -46t57 -22t58 -9q6 0 7 -24t-3 -34q-200 10 -222 10t-192 -10q-8 8 -8 33zM494 606q0 -8 4 -8q104 -4 167 -4t157 6l6 10l-162 442zM602 1482q0 14 92 104t146 130q12 6 50 6t64 -19t26 -41 q0 -46 -160 -126t-198 -80q-20 0 -20 26z" />
<glyph unicode="&#xc2;" d="M40 27q0 25 8 25q24 0 62 10t52 28q42 54 94 188l348 894q4 10 11 32t11 33t12 28t14 25t15 18q16 18 45 18l18 -6l400 -1056q36 -94 53 -134t67 -59t74 -19q8 0 8 -23t-4 -35q-200 10 -211 10t-241 -10q-8 8 -7 33t9 25q24 0 60 10t42 26q4 16 4 37q0 44 -20 111 l-90 248q-10 14 -139 14t-279 -10l-10 -6l-86 -220q-34 -100 -34 -133t17 -46t57 -22t58 -9q6 0 7 -24t-3 -34q-200 10 -222 10t-192 -10q-8 8 -8 33zM484 1436q8 8 51 47t85 78t70 79q14 16 23 16t35 -36q56 -78 172 -168q18 -14 18 -16q0 -40 -18 -40q-38 0 -210 116 q-48 -36 -118 -76t-89 -40t-19 40zM494 606q0 -8 4 -8q104 -4 167 -4t157 6l6 10l-162 442z" />
<glyph unicode="&#xc3;" d="M40 27q0 25 8 25q24 0 62 10t52 28q42 54 94 188l348 894q4 10 11 32t11 33t12 28t14 25t15 18q16 18 45 18l18 -6l400 -1056q36 -94 53 -134t67 -59t74 -19q8 0 8 -23t-4 -35q-200 10 -211 10t-241 -10q-8 8 -7 33t9 25q24 0 60 10t42 26q4 16 4 37q0 44 -20 111 l-90 248q-10 14 -139 14t-279 -10l-10 -6l-86 -220q-34 -100 -34 -133t17 -46t57 -22t58 -9q6 0 7 -24t-3 -34q-200 10 -222 10t-192 -10q-8 8 -8 33zM436 1476q0 56 55 98t106 42t133 -42t146 -42t94 68q4 2 12 2q18 0 18 -32q0 -56 -55 -98t-107 -42t-136 43t-144 43 t-92 -70q-4 -2 -12 -2q-18 0 -18 32zM494 606q0 -8 4 -8q104 -4 167 -4t157 6l6 10l-162 442z" />
<glyph unicode="&#xc4;" d="M40 27q0 25 8 25q24 0 62 10t52 28q42 54 94 188l348 894q4 10 11 32t11 33t12 28t14 25t15 18q16 18 45 18l18 -6l400 -1056q36 -94 53 -134t67 -59t74 -19q8 0 8 -23t-4 -35q-200 10 -211 10t-241 -10q-8 8 -7 33t9 25q24 0 60 10t42 26q4 16 4 37q0 44 -20 111 l-90 248q-10 14 -139 14t-279 -10l-10 -6l-86 -220q-34 -100 -34 -133t17 -46t57 -22t58 -9q6 0 7 -24t-3 -34q-200 10 -222 10t-192 -10q-8 8 -8 33zM434 1556q0 42 29 71t71 29t71 -29t29 -71t-29 -71t-71 -29t-71 29t-29 71zM494 606q0 -8 4 -8q104 -4 167 -4t157 6l6 10 l-162 442zM796 1556q0 42 29 71t71 29t71 -29t29 -71t-29 -71t-71 -29t-71 29t-29 71z" />
<glyph unicode="&#xc5;" d="M116 27q0 25 8 25q24 0 62 10t52 28q42 54 94 188l348 894q4 10 11 32t11 33t12 28t14 25t15 18q16 18 45 18l18 -6l400 -1056q36 -94 53 -134t67 -59t74 -19q8 0 8 -23t-4 -35q-200 10 -211 10t-241 -10q-8 8 -7 33t9 25q24 0 60 10t42 26q4 16 4 37q0 44 -20 111 l-90 248q-10 14 -139 14t-279 -10l-10 -6l-86 -220q-34 -100 -34 -133t17 -46t57 -22t58 -9q6 0 7 -24t-3 -34q-200 10 -222 10t-192 -10q-8 8 -8 33zM570 606q0 -8 4 -8q104 -4 167 -4t157 6l6 10l-162 442zM608 1504q0 74 53 126t125 52t123 -52t51 -126t-51 -127 t-123 -53t-125 53t-53 127zM674 1504q0 -46 33 -79t78 -33t77 33t32 79t-31 78t-77 32t-79 -32t-33 -78z" />
<glyph unicode="&#xc6;" horiz-adv-x="1964" d="M96 -6q-4 4 1 31t13 27q88 0 132 42t128 180l554 894q14 24 14 44t-32 33t-58 13q-8 0 -8 25t8 33q98 -4 232 -4l646 16q8 -58 31 -153t27 -119q-10 -10 -36 -10t-28 14q-30 110 -84 141t-148 31h-134q-172 0 -176 -26q-10 -48 -10 -168v-320q0 -12 86 -12h153t87 8 t36 10t21 26t15 35t14 57q2 14 28 14t36 -10v-378q-8 -8 -33 -8t-31 16q-26 100 -35 109t-28 21t-184 12t-165 -18v-310q0 -130 18 -182q6 -20 136 -20h96q186 0 252 34q30 16 67 71t59 131q4 12 35 12t43 -12q-98 -254 -108 -332l-682 12l-236 -10q-8 8 -8 33t8 25 q24 0 75 15t57 31q14 54 14 172v196q0 16 -34 22t-111 6t-231 -10l-10 -6l-138 -220q-58 -100 -65 -132t7 -46q28 -28 108 -28q4 0 -1 -24t-9 -34q-120 6 -198 6t-216 -6zM684 602q-2 -8 2 -8q104 -4 142 -4t142 4q24 0 24 22v430q0 16 -18 16q-8 0 -18 -14z" />
<glyph unicode="&#xc7;" horiz-adv-x="1312" d="M88 652q0 276 190 479t466 203q236 0 486 -50q-4 -268 -4 -288q0 -30 -42 -30q-20 0 -26 10q-29 126 -123 197q-41 31 -116 54t-169 23q-196 0 -334 -173t-138 -391q0 -352 233 -523q121 -89 303 -89t290 116q43 46 81 161q11 33 17 33q36 0 66 -18q0 -22 -28 -153 t-40 -137q-146 -88 -478 -88q-264 0 -449 194t-185 470zM596 -294q0 12 11 22t23 10t39 -15t61 -15t61 23t27 58t-23 56t-48 21t-63 -16q-4 0 -15 12t-7 20t34 53t40 65h50l-44 -54h60q46 0 75 -34t29 -82q0 -80 -64 -129t-137 -49t-101 20z" />
<glyph unicode="&#xc8;" horiz-adv-x="1142" d="M58 1283q0 25 8 33q104 -4 238 -4l646 16q8 -58 31 -153t27 -119q-10 -10 -36 -10t-28 14q-30 110 -84 141t-148 31h-134q-172 0 -176 -26q-10 -48 -10 -168v-320q0 -12 86 -12h153t87 8t36 10t21 26t15 35t14 57q2 14 28 14t36 -10v-378q-8 -8 -33 -8t-31 16 q-26 100 -35 109t-28 21t-184 12t-165 -18v-310q0 -130 18 -182q6 -20 136 -20h96q186 0 252 34q30 16 67 71t59 131q4 12 35 12t43 -12q-98 -254 -108 -332l-682 8l-242 -6q-6 6 -6 32t6 26q26 0 77 14t63 35t12 185v756q0 118 -14 172q-6 16 -59 30t-79 14q-8 0 -8 25z M292 1662q0 22 26 41t64 19t50 -6q54 -40 146 -130t92 -104q0 -26 -20 -26q-38 0 -198 80t-160 126z" />
<glyph unicode="&#xc9;" horiz-adv-x="1142" d="M58 1283q0 25 8 33q104 -4 238 -4l646 16q8 -58 31 -153t27 -119q-10 -10 -36 -10t-28 14q-30 110 -84 141t-148 31h-134q-172 0 -176 -26q-10 -48 -10 -168v-320q0 -12 86 -12h153t87 8t36 10t21 26t15 35t14 57q2 14 28 14t36 -10v-378q-8 -8 -33 -8t-31 16 q-26 100 -35 109t-28 21t-184 12t-165 -18v-310q0 -130 18 -182q6 -20 136 -20h96q186 0 252 34q30 16 67 71t59 131q4 12 35 12t43 -12q-98 -254 -108 -332l-682 8l-242 -6q-6 6 -6 32t6 26q26 0 77 14t63 35t12 185v756q0 118 -14 172q-6 16 -59 30t-79 14q-8 0 -8 25z M488 1482q0 14 92 104t146 130q12 6 50 6t64 -19t26 -41q0 -46 -160 -126t-198 -80q-20 0 -20 26z" />
<glyph unicode="&#xca;" horiz-adv-x="1142" d="M58 1283q0 25 8 33q104 -4 238 -4l646 16q8 -58 31 -153t27 -119q-10 -10 -36 -10t-28 14q-30 110 -84 141t-148 31h-134q-172 0 -176 -26q-10 -48 -10 -168v-320q0 -12 86 -12h153t87 8t36 10t21 26t15 35t14 57q2 14 28 14t36 -10v-378q-8 -8 -33 -8t-31 16 q-26 100 -35 109t-28 21t-184 12t-165 -18v-310q0 -130 18 -182q6 -20 136 -20h96q186 0 252 34q30 16 67 71t59 131q4 12 35 12t43 -12q-98 -254 -108 -332l-682 8l-242 -6q-6 6 -6 32t6 26q26 0 77 14t63 35t12 185v756q0 118 -14 172q-6 16 -59 30t-79 14q-8 0 -8 25z M340 1436q8 8 51 47t85 78t70 79q14 16 23 16t35 -36q56 -78 172 -168q18 -14 18 -16q0 -40 -18 -40q-38 0 -210 116q-48 -36 -118 -76t-89 -40t-19 40z" />
<glyph unicode="&#xcb;" horiz-adv-x="1142" d="M58 1283q0 25 8 33q104 -4 238 -4l646 16q8 -58 31 -153t27 -119q-10 -10 -36 -10t-28 14q-30 110 -84 141t-148 31h-134q-172 0 -176 -26q-10 -48 -10 -168v-320q0 -12 86 -12h153t87 8t36 10t21 26t15 35t14 57q2 14 28 14t36 -10v-378q-8 -8 -33 -8t-31 16 q-26 100 -35 109t-28 21t-184 12t-165 -18v-310q0 -130 18 -182q6 -20 136 -20h96q186 0 252 34q30 16 67 71t59 131q4 12 35 12t43 -12q-98 -254 -108 -332l-682 8l-242 -6q-6 6 -6 32t6 26q26 0 77 14t63 35t12 185v756q0 118 -14 172q-6 16 -59 30t-79 14q-8 0 -8 25z M288 1556q0 42 29 71t71 29t71 -29t29 -71t-29 -71t-71 -29t-71 29t-29 71zM650 1556q0 42 29 71t71 29t71 -29t29 -71t-29 -71t-71 -29t-71 29t-29 71z" />
<glyph unicode="&#xcc;" horiz-adv-x="636" d="M72 1662q0 22 26 41t64 19t50 -6q54 -40 146 -130t92 -104q0 -26 -20 -26q-38 0 -198 80t-160 126zM76 27q0 25 8 25q26 0 77 12t57 28q14 54 14 178v776q0 124 -14 178q-6 16 -57 29t-77 13q-8 0 -8 25t8 33q230 -10 251 -10t221 10q4 -12 4 -35t-8 -23q-20 0 -72 -14 t-56 -28q-18 -70 -18 -186v-760q0 -116 18 -186q4 -14 56 -27t72 -13q8 0 8 -23t-4 -35q-200 10 -221 10t-251 -10q-8 8 -8 33z" />
<glyph unicode="&#xcd;" horiz-adv-x="636" d="M76 27q0 25 8 25q26 0 77 12t57 28q14 54 14 178v776q0 124 -14 178q-6 16 -57 29t-77 13q-8 0 -8 25t8 33q230 -10 251 -10t221 10q4 -12 4 -35t-8 -23q-20 0 -72 -14t-56 -28q-18 -70 -18 -186v-760q0 -116 18 -186q4 -14 56 -27t72 -13q8 0 8 -23t-4 -35 q-200 10 -221 10t-251 -10q-8 8 -8 33zM222 1482q0 14 92 104t146 130q12 6 50 6t64 -19t26 -41q0 -46 -160 -126t-198 -80q-20 0 -20 26z" />
<glyph unicode="&#xce;" horiz-adv-x="636" d="M76 27q0 25 8 25q26 0 77 12t57 28q14 54 14 178v776q0 124 -14 178q-6 16 -57 29t-77 13q-8 0 -8 25t8 33q230 -10 251 -10t221 10q4 -12 4 -35t-8 -23q-20 0 -72 -14t-56 -28q-18 -70 -18 -186v-760q0 -116 18 -186q4 -14 56 -27t72 -13q8 0 8 -23t-4 -35 q-200 10 -221 10t-251 -10q-8 8 -8 33zM104 1450q8 8 51 47t85 78t70 79q14 16 23 16t35 -36q56 -78 172 -168q18 -14 18 -16q0 -40 -18 -40q-38 0 -210 116q-48 -36 -118 -76t-89 -40t-19 40z" />
<glyph unicode="&#xcf;" horiz-adv-x="636" d="M48 1556q0 42 29 71t71 29t71 -29t29 -71t-29 -71t-71 -29t-71 29t-29 71zM76 27q0 25 8 25q26 0 77 12t57 28q14 54 14 178v776q0 124 -14 178q-6 16 -57 29t-77 13q-8 0 -8 25t8 33q230 -10 251 -10t221 10q4 -12 4 -35t-8 -23q-20 0 -72 -14t-56 -28q-18 -70 -18 -186 v-760q0 -116 18 -186q4 -14 56 -27t72 -13q8 0 8 -23t-4 -35q-200 10 -221 10t-251 -10q-8 8 -8 33zM410 1556q0 42 29 71t71 29t71 -29t29 -71t-29 -71t-71 -29t-71 29t-29 71z" />
<glyph unicode="&#xd0;" horiz-adv-x="1462" d="M102 1283q0 25 8 33q104 -4 238 -4l348 4q326 0 508 -192t182 -467t-184 -469t-508 -194q-24 0 -145 4t-197 2l-242 -6q-6 6 -6 32t6 26q26 0 77 14t63 35t12 185v756q0 118 -14 172q-6 16 -59 30t-79 14q-8 0 -8 25zM130 647q0 31 12 49h690q12 0 12 -26t-12 -54h-692 q-10 0 -10 31zM436 278q0 -84 30 -152q8 -20 107 -30t153 -10q230 0 349 151t119 443q0 226 -125 387t-357 161h-10q-216 0 -241 -34t-25 -124v-792z" />
<glyph unicode="&#xd1;" horiz-adv-x="1442" d="M40 26q0 26 6 26q28 0 91 15t69 33q20 52 20 188v786q0 98 -14 150q-6 16 -68 29t-90 13q-8 0 -8 25t8 33q156 -4 232 -4t132 4q74 -136 678 -980q6 34 6 82v622q0 122 -14 176q-6 16 -69 31t-89 15q-8 0 -8 23t8 31q156 -12 236 -12l224 12q4 -12 4 -33t-8 -21 q-20 0 -87 -16t-71 -30q-16 -62 -16 -186v-760q0 -124 6 -280q-8 -8 -40 -8t-64 46l-776 1100v-854q0 -132 14 -186q4 -14 67 -29t83 -15q6 0 7 -24t-3 -34q-200 10 -230 10l-230 -10q-6 6 -6 32zM436 1476q0 56 55 98t106 42t133 -42t146 -42t94 68q4 2 12 2q18 0 18 -32 q0 -56 -55 -98t-107 -42t-136 43t-144 43t-92 -70q-4 -2 -12 -2q-18 0 -18 32z" />
<glyph unicode="&#xd2;" horiz-adv-x="1456" d="M88 656q0 280 187 479t451 199t452 -199t188 -479t-188 -478t-452 -198t-451 198t-187 478zM286 700q0 -160 52 -302t162 -237t248 -95t234 83q186 161 186 469q0 160 -52 301t-162 236t-258 95q-190 0 -300 -166t-110 -384zM454 1662q0 22 26 41t64 19t50 -6 q54 -40 146 -130t92 -104q0 -26 -20 -26q-38 0 -198 80t-160 126z" />
<glyph unicode="&#xd3;" horiz-adv-x="1456" d="M88 656q0 280 187 479t451 199t452 -199t188 -479t-188 -478t-452 -198t-451 198t-187 478zM286 700q0 -160 52 -302t162 -237t248 -95t234 83q186 161 186 469q0 160 -52 301t-162 236t-258 95q-190 0 -300 -166t-110 -384zM612 1482q0 14 92 104t146 130q12 6 50 6 t64 -19t26 -41q0 -46 -160 -126t-198 -80q-20 0 -20 26z" />
<glyph unicode="&#xd4;" horiz-adv-x="1456" d="M88 656q0 280 187 479t451 199t452 -199t188 -479t-188 -478t-452 -198t-451 198t-187 478zM286 700q0 -160 52 -302t162 -237t248 -95t234 83q186 161 186 469q0 160 -52 301t-162 236t-258 95q-190 0 -300 -166t-110 -384zM510 1436q8 8 51 47t85 78t70 79q14 16 23 16 t35 -36q56 -78 172 -168q18 -14 18 -16q0 -40 -18 -40q-38 0 -210 116q-48 -36 -118 -76t-89 -40t-19 40z" />
<glyph unicode="&#xd5;" horiz-adv-x="1456" d="M88 656q0 280 187 479t451 199t452 -199t188 -479t-188 -478t-452 -198t-451 198t-187 478zM286 700q0 -160 52 -302t162 -237t248 -95t234 83q186 161 186 469q0 160 -52 301t-162 236t-258 95q-190 0 -300 -166t-110 -384zM436 1476q0 56 55 98t106 42t133 -42t146 -42 t94 68q4 2 12 2q18 0 18 -32q0 -56 -55 -98t-107 -42t-136 43t-144 43t-92 -70q-4 -2 -12 -2q-18 0 -18 32z" />
<glyph unicode="&#xd6;" horiz-adv-x="1456" d="M88 656q0 280 187 479t451 199t452 -199t188 -479t-188 -478t-452 -198t-451 198t-187 478zM286 700q0 -160 52 -302t162 -237t248 -95t234 83q186 161 186 469q0 160 -52 301t-162 236t-258 95q-190 0 -300 -166t-110 -384zM456 1556q0 42 29 71t71 29t71 -29t29 -71 t-29 -71t-71 -29t-71 29t-29 71zM818 1556q0 42 29 71t71 29t71 -29t29 -71t-29 -71t-71 -29t-71 29t-29 71z" />
<glyph unicode="&#xd7;" horiz-adv-x="828" d="M54 216l276 270q2 2 2 7t-4 9l-274 274q0 20 26 57t36 37q2 0 10 -8l284 -282q4 -4 8 -4l4 2l282 282q6 6 13 6t31 -41t24 -57l-270 -270q-2 -2 -2 -6v-4l272 -272q0 -22 -20 -59t-31 -37t-17 6l-280 280q-4 4 -8 4t-8 -4l-286 -280q-6 -6 -13 -6t-31 40t-24 56z" />
<glyph unicode="&#xd8;" horiz-adv-x="1392" d="M56 656q0 280 187 479t451 199t452 -199t188 -479t-188 -478t-452 -198t-451 198t-187 478zM244 20l836 1314q16 -4 40 -20t18 -24l-836 -1316q-18 6 -41 22t-17 24zM254 700q0 -160 52 -302t162 -237t248 -95t234 83q186 161 186 469q0 160 -52 301t-162 236t-258 95 q-190 0 -300 -166t-110 -384z" />
<glyph unicode="&#xd9;" horiz-adv-x="1438" d="M66 1291q0 25 8 33q230 -10 251 -10t221 10q4 -12 4 -35t-8 -23q-20 0 -72 -14t-56 -28q-18 -70 -18 -186v-446q0 -226 96 -360t272 -134q342 0 342 450v500q0 122 -14 176q-6 16 -69 31t-89 15q-8 0 -8 23t8 31q156 -12 236 -12l224 12q4 -12 4 -33t-8 -21 q-20 0 -87 -16t-71 -30q-16 -62 -16 -186v-486q0 -310 -130 -431t-369 -121t-367 140t-128 452v454q0 124 -14 178q-6 16 -57 29t-77 13q-8 0 -8 25zM468 1662q0 22 26 41t64 19t50 -6q54 -40 146 -130t92 -104q0 -26 -20 -26q-38 0 -198 80t-160 126z" />
<glyph unicode="&#xda;" horiz-adv-x="1438" d="M66 1291q0 25 8 33q230 -10 251 -10t221 10q4 -12 4 -35t-8 -23q-20 0 -72 -14t-56 -28q-18 -70 -18 -186v-446q0 -226 96 -360t272 -134q342 0 342 450v500q0 122 -14 176q-6 16 -69 31t-89 15q-8 0 -8 23t8 31q156 -12 236 -12l224 12q4 -12 4 -33t-8 -21 q-20 0 -87 -16t-71 -30q-16 -62 -16 -186v-486q0 -310 -130 -431t-369 -121t-367 140t-128 452v454q0 124 -14 178q-6 16 -57 29t-77 13q-8 0 -8 25zM614 1482q0 14 92 104t146 130q12 6 50 6t64 -19t26 -41q0 -46 -160 -126t-198 -80q-20 0 -20 26z" />
<glyph unicode="&#xdb;" horiz-adv-x="1438" d="M66 1291q0 25 8 33q230 -10 251 -10t221 10q4 -12 4 -35t-8 -23q-20 0 -72 -14t-56 -28q-18 -70 -18 -186v-446q0 -226 96 -360t272 -134q342 0 342 450v500q0 122 -14 176q-6 16 -69 31t-89 15q-8 0 -8 23t8 31q156 -12 236 -12l224 12q4 -12 4 -33t-8 -21 q-20 0 -87 -16t-71 -30q-16 -62 -16 -186v-486q0 -310 -130 -431t-369 -121t-367 140t-128 452v454q0 124 -14 178q-6 16 -57 29t-77 13q-8 0 -8 25zM518 1436q8 8 51 47t85 78t70 79q14 16 23 16t35 -36q56 -78 172 -168q18 -14 18 -16q0 -40 -18 -40q-38 0 -210 116 q-48 -36 -118 -76t-89 -40t-19 40z" />
<glyph unicode="&#xdc;" horiz-adv-x="1438" d="M66 1291q0 25 8 33q230 -10 251 -10t221 10q4 -12 4 -35t-8 -23q-20 0 -72 -14t-56 -28q-18 -70 -18 -186v-446q0 -226 96 -360t272 -134q342 0 342 450v500q0 122 -14 176q-6 16 -69 31t-89 15q-8 0 -8 23t8 31q156 -12 236 -12l224 12q4 -12 4 -33t-8 -21 q-20 0 -87 -16t-71 -30q-16 -62 -16 -186v-486q0 -310 -130 -431t-369 -121t-367 140t-128 452v454q0 124 -14 178q-6 16 -57 29t-77 13q-8 0 -8 25zM462 1556q0 42 29 71t71 29t71 -29t29 -71t-29 -71t-71 -29t-71 29t-29 71zM824 1556q0 42 29 71t71 29t71 -29t29 -71 t-29 -71t-71 -29t-71 29t-29 71z" />
<glyph unicode="&#xdd;" horiz-adv-x="1298" d="M30 1293q0 23 8 31q192 -12 228 -12t276 12q4 -8 3 -31t-7 -23q-34 0 -77 -17t-43 -45t22 -66l224 -424q10 -10 20 4q272 412 272 482q0 22 -40 44t-98 22q-8 0 -8 23t8 31q222 -12 260 -12t104 6t84 6q4 -12 4 -33t-8 -21q-24 0 -84 -18t-80 -44q-76 -118 -221 -358 t-145 -268v-304q0 -124 16 -186q4 -14 54 -29t68 -15q8 0 8 -21t-4 -33q-200 10 -215 10t-245 -10q-8 8 -8 31t8 23q24 0 73 14t55 30q16 62 16 192v250q0 28 -43 111t-162 298t-136 238t-44 42t-71 33t-64 14q-8 0 -8 23zM614 1482q0 14 92 104t146 130q12 6 50 6t64 -19 t26 -41q0 -46 -160 -126t-198 -80q-20 0 -20 26z" />
<glyph unicode="&#xde;" horiz-adv-x="1112" d="M100 27q0 25 8 25q26 0 77 12t57 28q14 54 14 178v776q0 124 -14 178q-6 16 -57 29t-77 13q-8 0 -8 25t8 33q230 -10 251 -10t221 10q4 -12 4 -35t-8 -23q-20 0 -72 -14t-56 -28q-18 -68 -18 -176v-40q0 -14 5 -14t29 7q72 21 150 21t145 -20t130 -60t103 -114t40 -152 t-25 -145t-73 -130t-129 -104t-187 -41t-148 56q-12 14 -6 46q2 8 6 6q60 -22 147 -22t159 84t72 213t-62 212t-177 83t-155 -14q-24 -8 -24 -74v-568q0 -116 18 -186q4 -14 56 -27t72 -13q8 0 8 -23t-4 -35q-200 10 -221 10t-251 -10q-8 8 -8 33z" />
<glyph unicode="&#xdf;" horiz-adv-x="1156" d="M94 27q0 25 8 25q24 0 65 13t45 27q18 70 19 262t1 368q0 16 -10 16h-106q-6 0 -6 16t11 47t19 31h82q10 0 10 12v32q0 250 92 380t251 130t255 -65t96 -199q0 -76 -43 -142t-95 -104q-138 -101 -138 -156.5t51 -97.5t121 -79t99 -56t66 -51q75 -65 75 -173.5t-76 -195.5 t-174 -87t-165 28t-85 58q0 116 68 116q37 0 71 -68q13 -26 39 -47t71 -21t80 42t35 106t-40 106t-98 71t-116 62t-98 88t-40 118t25 104t61 72t71 66q85 85 85 201t-51 177t-130 61t-120 -33t-59 -93q-30 -100 -30 -244l2 -680q0 -124 14 -178q4 -14 46 -27t60 -13 q6 0 8 -24t-2 -34q-200 10 -203 10t-209 -10q-8 8 -8 33z" />
<glyph unicode="&#xe0;" horiz-adv-x="846" d="M78 182q0 151 245 237q37 13 97 33t81 28t21 32v150q0 64 -40 99t-98 35t-98 -41t-40 -109t-82 -68q-56 0 -78 38q0 86 126 171t246 85t168 -53t48 -171v-462q0 -42 22 -70t55 -28t75 28q8 0 8 -21t-10 -37q-82 -70 -134 -70t-94 38t-58 80q-2 0 -15 -13t-35 -30t-51 -35 q-68 -42 -153.5 -42t-145.5 49t-60 147zM174 1266q0 20 25 34t66 14t59 -18q74 -87 130 -178.5t56 -97.5q0 -26 -25 -26t-168 111t-143 161zM246 208q0 -50 34 -79t88 -29t104 33t50 67v206q-16 -8 -78 -28t-97 -35t-68 -50t-33 -85z" />
<glyph unicode="&#xe1;" horiz-adv-x="846" d="M78 182q0 151 245 237q37 13 97 33t81 28t21 32v150q0 64 -40 99t-98 35t-98 -41t-40 -109t-82 -68q-56 0 -78 38q0 86 126 171t246 85t168 -53t48 -171v-462q0 -42 22 -70t55 -28t75 28q8 0 8 -21t-10 -37q-82 -70 -134 -70t-94 38t-58 80q-2 0 -15 -13t-35 -30t-51 -35 q-68 -42 -153.5 -42t-145.5 49t-60 147zM246 208q0 -50 34 -79t88 -29t104 33t50 67v206q-16 -8 -78 -28t-97 -35t-68 -50t-33 -85zM322 1020q0 18 76 128t110 148q18 18 59 18t61 -11q30 -17 30 -37q0 -50 -143 -161t-168 -111t-25 26z" />
<glyph unicode="&#xe2;" horiz-adv-x="846" d="M78 182q0 151 245 237q37 13 97 33t81 28t21 32v150q0 64 -40 99t-98 35t-98 -41t-40 -109t-82 -68q-56 0 -78 38q0 86 126 171t246 85t168 -53t48 -171v-462q0 -42 22 -70t55 -28t75 28q8 0 8 -21t-10 -37q-82 -70 -134 -70t-94 38t-58 80q-2 0 -15 -13t-35 -30t-51 -35 q-68 -42 -153.5 -42t-145.5 49t-60 147zM208 980q6 8 44 51q97 109 123.5 155t30.5 46q10 0 39 -49t52 -79t50 -60t43 -46t16 -18q0 -46 -15 -46t-77 45t-108 87q-44 -42 -104 -87t-77 -45t-17 46zM246 208q0 -50 34 -79t88 -29t104 33t50 67v206q-16 -8 -78 -28t-97 -35 t-68 -50t-33 -85z" />
<glyph unicode="&#xe3;" horiz-adv-x="846" d="M78 182q0 151 245 237q37 13 97 33t81 28t21 32v150q0 64 -40 99t-98 35t-98 -41t-40 -109t-82 -68q-56 0 -78 38q0 86 126 171t246 85t168 -53t48 -171v-462q0 -42 22 -70t55 -28t75 28q8 0 8 -21t-10 -37q-82 -70 -134 -70t-94 38t-58 80q-2 0 -15 -13t-35 -30t-51 -35 q-68 -42 -153.5 -42t-145.5 49t-60 147zM96 1040q0 56 55 98t106 42t133 -42t146 -42t94 68q4 2 12 2q18 0 18 -32q0 -56 -55 -98t-107 -42t-136 43t-144 43t-92 -70q-4 -2 -12 -2q-18 0 -18 32zM246 208q0 -50 34 -79t88 -29t104 33t50 67v206q-16 -8 -78 -28t-97 -35 t-68 -50t-33 -85z" />
<glyph unicode="&#xe4;" horiz-adv-x="846" d="M78 182q0 151 245 237q37 13 97 33t81 28t21 32v150q0 64 -40 99t-98 35t-98 -41t-40 -109t-82 -68q-56 0 -78 38q0 86 126 171t246 85t168 -53t48 -171v-462q0 -42 22 -70t55 -28t75 28q8 0 8 -21t-10 -37q-82 -70 -134 -70t-94 38t-58 80q-2 0 -15 -13t-35 -30t-51 -35 q-68 -42 -153.5 -42t-145.5 49t-60 147zM112 1092q0 40 31 69t71 29t69 -30t29 -70t-30 -68t-70 -28t-70 29t-30 69zM246 208q0 -50 34 -79t88 -29t104 33t50 67v206q-16 -8 -78 -28t-97 -35t-68 -50t-33 -85zM478 1092q0 40 31 69t71 29t69 -30t29 -70t-30 -68t-70 -28 t-70 29t-30 69z" />
<glyph unicode="&#xe5;" horiz-adv-x="846" d="M78 182q0 151 245 237q37 13 97 33t81 28t21 32v150q0 64 -40 99t-98 35t-98 -41t-40 -109t-82 -68q-56 0 -78 38q0 86 126 171t246 85t168 -53t48 -171v-462q0 -42 22 -70t55 -28t75 28q8 0 8 -21t-10 -37q-82 -70 -134 -70t-94 38t-58 80q-2 0 -15 -13t-35 -30t-51 -35 q-68 -42 -153.5 -42t-145.5 49t-60 147zM234 1174q0 74 52 126t124 52t123 -52t51 -126t-51 -127t-123 -53t-124 53t-52 127zM246 208q0 -50 34 -79t88 -29t104 33t50 67v206q-16 -8 -78 -28t-97 -35t-68 -50t-33 -85zM300 1174q0 -46 32 -79t77 -33t77 33t32 79t-31 78 t-77 32t-78 -32t-32 -78z" />
<glyph unicode="&#xe6;" horiz-adv-x="1350" d="M100 166q0 82 43 137t112 90q124 63 271 89q18 2 18 30v168q0 50 -41 83t-98 33t-97 -41t-40 -109t-82 -68q-56 0 -78 38q0 86 126 171t256 85q66 0 120 -29t72 -79q108 108 254 108q92 0 160 -33t102 -88q64 -104 64 -221q0 -18 -3 -27t-4 -13t-6 -7t-6 -4t-9 -2t-9 -2 t-10 -1h-11q-202 -16 -478 -30q-16 0 -16 -16q0 -128 87 -220t211 -92q114 0 210 63q26 17 28 17q12 0 12 -26t-14 -40q-120 -142 -284 -142q-210 0 -324 168q-48 -58 -137 -114t-184 -56t-155 49t-60 131zM268 212q0 -54 34 -83t88 -29t104 33t50 67v206 q-276 -52 -276 -194zM712 534q0 -12 12 -12q82 4 222 17t151 16t11 19q0 54 -54 139t-126 85q-98 0 -157 -90t-59 -174z" />
<glyph unicode="&#xe7;" horiz-adv-x="810" d="M74 420q0 182 100 317t304 135t288 -102q0 -134 -74 -134q-34 0 -52 15t-46 55q-62 92 -146 92t-151 -78t-67 -235t79 -263t212 -106t245 80q12 0 12 -21t-12 -41q-40 -56 -118 -101t-170 -45q-166 0 -285 125t-119 307zM314 -250q0 10 9 19t20 9t33 -13t51 -13t52 19 t23 49t-20 48t-40 18t-54 -14q-4 0 -13 10t-4 19t29 46t32 53h42l-36 -46h50q38 0 63 -29t25 -69q0 -68 -54 -110t-115 -42t-87 18z" />
<glyph unicode="&#xe8;" horiz-adv-x="860" d="M74 433q0 195 113 317t283 122q92 0 162 -35t107 -90q71 -106 71 -225q0 -40 -12 -49t-46 -9h-504q-16 0 -16 -10q0 -126 76 -232t211 -106t247 80q12 0 12 -21t-12 -41q-40 -56 -118 -101t-170 -45q-166 0 -285 125t-119 320zM210 1266q0 20 25 34t66 14t59 -18 q74 -87 130 -178.5t56 -97.5q0 -26 -25 -26t-168 111t-143 161zM236 562q0 -14 12 -14h390q10 0 10 20q0 64 -54 147t-151 83t-152 -89t-55 -147z" />
<glyph unicode="&#xe9;" horiz-adv-x="860" d="M74 433q0 195 113 317t283 122q92 0 162 -35t107 -90q71 -106 71 -225q0 -40 -12 -49t-46 -9h-504q-16 0 -16 -10q0 -126 76 -232t211 -106t247 80q12 0 12 -21t-12 -41q-40 -56 -118 -101t-170 -45q-166 0 -285 125t-119 320zM236 562q0 -14 12 -14h390q10 0 10 20 q0 64 -54 147t-151 83t-152 -89t-55 -147zM346 1020q0 18 76 128t110 148q18 18 59 18t61 -11q30 -17 30 -37q0 -50 -143 -161t-168 -111t-25 26z" />
<glyph unicode="&#xea;" horiz-adv-x="860" d="M74 433q0 195 113 317t283 122q92 0 162 -35t107 -90q71 -106 71 -225q0 -40 -12 -49t-46 -9h-504q-16 0 -16 -10q0 -126 76 -232t211 -106t247 80q12 0 12 -21t-12 -41q-40 -56 -118 -101t-170 -45q-166 0 -285 125t-119 320zM236 562q0 -14 12 -14h390q10 0 10 20 q0 64 -54 147t-151 83t-152 -89t-55 -147zM252 980q6 8 44 51q97 109 123.5 155t30.5 46q10 0 39 -49t52 -79t50 -60t43 -46t16 -18q0 -46 -15 -46t-77 45t-108 87q-44 -42 -104 -87t-77 -45t-17 46z" />
<glyph unicode="&#xeb;" horiz-adv-x="860" d="M74 433q0 195 113 317t283 122q92 0 162 -35t107 -90q71 -106 71 -225q0 -40 -12 -49t-46 -9h-504q-16 0 -16 -10q0 -126 76 -232t211 -106t247 80q12 0 12 -21t-12 -41q-40 -56 -118 -101t-170 -45q-166 0 -285 125t-119 320zM172 1092q0 40 31 69t71 29t69 -30t29 -70 t-30 -68t-70 -28t-70 29t-30 69zM236 562q0 -14 12 -14h390q10 0 10 20q0 64 -54 147t-151 83t-152 -89t-55 -147zM538 1092q0 40 31 69t71 29t69 -30t29 -70t-30 -68t-70 -28t-70 29t-30 69z" />
<glyph unicode="&#xec;" horiz-adv-x="564" d="M26 1266q0 20 25 34t66 14t59 -18q74 -87 130 -178.5t56 -97.5q0 -26 -25 -26t-168 111t-143 161zM58 27q0 25 8 25q24 0 71 13t51 27q14 58 14 140v378q0 78 -24 105t-53 36t-48 9t-19 4q0 48 12 50q212 32 245 42t41 12q8 0 10 -17t-4 -61t-6 -108v-412q0 -116 16 -178 q4 -14 52 -27t68 -13q6 0 8 -24t-2 -34q-200 10 -213 10t-219 -10q-8 8 -8 33z" />
<glyph unicode="&#xed;" horiz-adv-x="564" d="M58 27q0 25 8 25q24 0 71 13t51 27q14 58 14 140v378q0 78 -24 105t-53 36t-48 9t-19 4q0 48 12 50q212 32 245 42t41 12q8 0 10 -17t-4 -61t-6 -108v-412q0 -116 16 -178q4 -14 52 -27t68 -13q6 0 8 -24t-2 -34q-200 10 -213 10t-219 -10q-8 8 -8 33zM142 1020 q0 18 76 128t110 148q18 18 59 18t61 -11q30 -17 30 -37q0 -50 -143 -161t-168 -111t-25 26z" />
<glyph unicode="&#xee;" horiz-adv-x="564" d="M58 27q0 25 8 25q24 0 71 13t51 27q14 58 14 140v378q0 78 -24 105t-53 36t-48 9t-19 4q0 48 12 50q212 32 245 42t41 12q8 0 10 -17t-4 -61t-6 -108v-412q0 -116 16 -178q4 -14 52 -27t68 -13q6 0 8 -24t-2 -34q-200 10 -213 10t-219 -10q-8 8 -8 33zM62 980q6 8 44 51 q97 109 123.5 155t30.5 46q10 0 39 -49t52 -79t50 -60t43 -46t16 -18q0 -46 -15 -46t-77 45t-108 87q-44 -42 -104 -87t-77 -45t-17 46z" />
<glyph unicode="&#xef;" horiz-adv-x="682" d="M122 1092q0 40 31 69t71 29t69 -30t29 -70t-30 -68t-70 -28t-70 29t-30 69zM144 27q0 25 8 25q24 0 71 13t51 27q14 58 14 140v378q0 78 -24 105t-53 36t-48 9t-19 4q0 48 12 50q212 32 245 42t41 12q8 0 10 -17t-4 -61t-6 -108v-412q0 -116 16 -178q4 -14 52 -27t68 -13 q6 0 8 -24t-2 -34q-200 10 -213 10t-219 -10q-8 8 -8 33zM442 1092q0 40 31 69t71 29t69 -30t29 -70t-30 -68t-70 -28t-70 29t-30 69z" />
<glyph unicode="&#xf0;" horiz-adv-x="1028" d="M56 427q0 171 126 310t304 139q58 0 119 -18t83 -42q-28 138 -157 272t-387 240q0 12 9 30t19 18q225 -51 406 -194q326 -258 326 -662q0 -224 -112 -379t-282 -155q-200 0 -327 135t-127 306zM204 1082l508 328q44 -54 36 -62l-510 -330q-46 52 -34 64zM228 441 q0 -147 78 -262t188 -115t173 108t63 281t-38 223q-92 120 -232 120q-102 0 -167 -104t-65 -251z" />
<glyph unicode="&#xf1;" horiz-adv-x="1086" d="M58 27q0 25 8 25q24 0 71 13t51 27q14 58 14 140v378q0 78 -24 105t-53 36t-48 9t-19 4q0 48 12 50q212 32 245 42t41 12q8 0 10 -17t-3 -49t-5 -48t3 -16t7 4q46 48 125 91t151 43q140 0 196 -100t56 -324v-182q0 -116 16 -178q4 -14 52 -27t68 -13q6 0 8 -24t-2 -34 q-200 10 -209 10t-215 -10q-8 8 -8 33t8 25q24 0 67 13t47 27q14 58 14 140v200q0 186 -48 254t-156 68q-64 0 -123 -47t-59 -85v-352q0 -116 16 -178q4 -14 52 -27t68 -13q6 0 8 -24t-2 -34q-200 10 -213 10t-219 -10q-8 8 -8 33zM216 1044q0 56 55 98t106 42t133 -42 t146 -42t94 68q4 2 12 2q18 0 18 -32q0 -56 -55 -98t-107 -42t-136 43t-144 43t-92 -70q-4 -2 -12 -2q-18 0 -18 32z" />
<glyph unicode="&#xf2;" horiz-adv-x="1020" d="M74 433q0 185 124 313t307 128t311 -130t128 -313t-125 -314t-307 -131t-310 131t-128 316zM246 450q0 -152 85 -269t195 -117t178 100t68 251t-86 266t-196 115t-177 -97t-67 -249zM316 1266q0 20 25 34t66 14t59 -18q74 -87 130 -178.5t56 -97.5q0 -26 -25 -26 t-168 111t-143 161z" />
<glyph unicode="&#xf3;" horiz-adv-x="1020" d="M74 433q0 185 124 313t307 128t311 -130t128 -313t-125 -314t-307 -131t-310 131t-128 316zM246 450q0 -152 85 -269t195 -117t178 100t68 251t-86 266t-196 115t-177 -97t-67 -249zM392 1020q0 18 76 128t110 148q18 18 59 18t61 -11q30 -17 30 -37q0 -50 -143 -161 t-168 -111t-25 26z" />
<glyph unicode="&#xf4;" horiz-adv-x="1020" d="M74 433q0 185 124 313t307 128t311 -130t128 -313t-125 -314t-307 -131t-310 131t-128 316zM246 450q0 -152 85 -269t195 -117t178 100t68 251t-86 266t-196 115t-177 -97t-67 -249zM304 980q6 8 44 51q97 109 123.5 155t30.5 46q10 0 39 -49t52 -79t50 -60t43 -46 t16 -18q0 -46 -15 -46t-77 45t-108 87q-44 -42 -104 -87t-77 -45t-17 46z" />
<glyph unicode="&#xf5;" horiz-adv-x="1020" d="M74 433q0 185 124 313t307 128t311 -130t128 -313t-125 -314t-307 -131t-310 131t-128 316zM210 1042q0 56 55 98t106 42t133 -42t146 -42t94 68q4 2 12 2q18 0 18 -32q0 -56 -55 -98t-107 -42t-136 43t-144 43t-92 -70q-4 -2 -12 -2q-18 0 -18 32zM246 450 q0 -152 85 -269t195 -117t178 100t68 251t-86 266t-196 115t-177 -97t-67 -249z" />
<glyph unicode="&#xf6;" horiz-adv-x="1020" d="M74 433q0 185 124 313t307 128t311 -130t128 -313t-125 -314t-307 -131t-310 131t-128 316zM224 1092q0 40 31 69t71 29t69 -30t29 -70t-30 -68t-70 -28t-70 29t-30 69zM246 450q0 -152 85 -269t195 -117t178 100t68 251t-86 266t-196 115t-177 -97t-67 -249zM590 1092 q0 40 31 69t71 29t69 -30t29 -70t-30 -68t-70 -28t-70 29t-30 69z" />
<glyph unicode="&#xf7;" horiz-adv-x="1056" d="M56 452q0 16 7 60t21 44h898q14 -2 14 -25t-9 -58q-11 -41 -19 -41l-4 -2h-896q-12 6 -12 22zM426 104v8q0 38 30 68t69 30t66 -27t31 -69v-4q0 -36 -30 -68t-69 -32t-66 26t-31 68zM426 870v8q0 38 30 67t69 29t66 -24t31 -64v-10q0 -36 -30 -66t-69 -30t-66 25t-31 65z " />
<glyph unicode="&#xf8;" horiz-adv-x="1066" d="M56 433q0 185 124 313t307 128t311 -130t128 -313t-125 -314t-307 -131t-310 131t-128 316zM202 26l540 848q60 -26 54 -40l-540 -850q-60 30 -54 42zM228 450q0 -152 85 -269t195 -117t178 100t68 251t-86 266t-196 115t-177 -97t-67 -249z" />
<glyph unicode="&#xf9;" horiz-adv-x="1034" d="M58 764q0 48 12 50q212 32 245 42t41 12q8 0 10 -17t-5 -69t-7 -104v-270q0 -154 46 -227t150 -73q60 0 114 47t54 81v374q0 78 -24 105t-53 36t-48 9t-19 4q0 48 12 50q212 32 245 42t41 12q8 0 10 -17t-5 -69t-7 -100v-400q0 -86 14 -152q10 -34 100 -34l18 -2 q6 -2 6 -15t-5 -26t-11 -13q-123 -8 -240 -52l-18 -4q-16 0 -16 32v102l-4 10q-132 -142 -262 -142q-74 0 -127 37t-78 98q-45 110 -45 237v252q0 78 -24 105t-53 36t-48 9t-19 4zM306 1266q0 20 25 34t66 14t59 -18q74 -87 130 -178.5t56 -97.5q0 -26 -25 -26t-168 111 t-143 161z" />
<glyph unicode="&#xfa;" horiz-adv-x="1034" d="M58 764q0 48 12 50q212 32 245 42t41 12q8 0 10 -17t-5 -69t-7 -104v-270q0 -154 46 -227t150 -73q60 0 114 47t54 81v374q0 78 -24 105t-53 36t-48 9t-19 4q0 48 12 50q212 32 245 42t41 12q8 0 10 -17t-5 -69t-7 -100v-400q0 -86 14 -152q10 -34 100 -34l18 -2 q6 -2 6 -15t-5 -26t-11 -13q-123 -8 -240 -52l-18 -4q-16 0 -16 32v102l-4 10q-132 -142 -262 -142q-74 0 -127 37t-78 98q-45 110 -45 237v252q0 78 -24 105t-53 36t-48 9t-19 4zM458 1020q0 18 76 128t110 148q18 18 59 18t61 -11q30 -17 30 -37q0 -50 -143 -161 t-168 -111t-25 26z" />
<glyph unicode="&#xfb;" horiz-adv-x="1034" d="M58 764q0 48 12 50q212 32 245 42t41 12q8 0 10 -17t-5 -69t-7 -104v-270q0 -154 46 -227t150 -73q60 0 114 47t54 81v374q0 78 -24 105t-53 36t-48 9t-19 4q0 48 12 50q212 32 245 42t41 12q8 0 10 -17t-5 -69t-7 -100v-400q0 -86 14 -152q10 -34 100 -34l18 -2 q6 -2 6 -15t-5 -26t-11 -13q-123 -8 -240 -52l-18 -4q-16 0 -16 32v102l-4 10q-132 -142 -262 -142q-74 0 -127 37t-78 98q-45 110 -45 237v252q0 78 -24 105t-53 36t-48 9t-19 4zM324 980q6 8 44 51q97 109 123.5 155t30.5 46q10 0 39 -49t52 -79t50 -60t43 -46t16 -18 q0 -46 -15 -46t-77 45t-108 87q-44 -42 -104 -87t-77 -45t-17 46z" />
<glyph unicode="&#xfc;" horiz-adv-x="1034" d="M58 764q0 48 12 50q212 32 245 42t41 12q8 0 10 -17t-5 -69t-7 -104v-270q0 -154 46 -227t150 -73q60 0 114 47t54 81v374q0 78 -24 105t-53 36t-48 9t-19 4q0 48 12 50q212 32 245 42t41 12q8 0 10 -17t-5 -69t-7 -100v-400q0 -86 14 -152q10 -34 100 -34l18 -2 q6 -2 6 -15t-5 -26t-11 -13q-123 -8 -240 -52l-18 -4q-16 0 -16 32v102l-4 10q-132 -142 -262 -142q-74 0 -127 37t-78 98q-45 110 -45 237v252q0 78 -24 105t-53 36t-48 9t-19 4zM244 1092q0 40 31 69t71 29t69 -30t29 -70t-30 -68t-70 -28t-70 29t-30 69zM610 1092 q0 40 31 69t71 29t69 -30t29 -70t-30 -68t-70 -28t-70 29t-30 69z" />
<glyph unicode="&#xfd;" horiz-adv-x="908" d="M4 835q0 25 8 33q206 -10 238 -10t172 10q4 -12 4 -35t-8 -23q-16 0 -53 -14t-41 -28v-4q0 -36 214 -522l152 438q14 42 14 67t-31 44t-83 19q-8 0 -8 25t8 33l78 -6q52 -4 98 -4t98 4l78 6q4 -12 4 -35t-8 -23q-26 0 -71 -18t-59 -58l-358 -966q-46 -124 -104 -173 t-103 -49t-65 26t-20 61t28 55q166 0 220 172l24 72q14 42 22 68l-286 700q-22 48 -40 67t-55 31t-59 12q-8 0 -8 25zM464 1020q0 18 76 128t110 148q18 18 59 18t61 -11q30 -17 30 -37q0 -50 -143 -161t-168 -111t-25 26z" />
<glyph unicode="&#xfe;" horiz-adv-x="1026" d="M84 -419q0 25 8 25q24 0 71 13t51 27q14 58 14 140v1310q0 70 -12 130q-10 32 -102 32h-18q-12 0 -12 27t12 27q182 18 278 76h4q8 0 16 -11t10 -21q-22 -64 -22 -174v-368q0 -10 6 -10q28 20 91 44t109 24q192 0 300 -129t108 -275q0 -192 -134 -338t-304 -146 q-77 0 -104 11q-48 19 -64 27q-8 -10 -8 -26v-172q0 -116 16 -178q4 -14 52 -27t68 -13q6 0 8 -25t-2 -33q-200 10 -214 10t-218 -10q-8 8 -8 33zM382 196q0 -54 58 -91t126 -37q118 0 188 106t70 256t-89 247t-211 97q-62 0 -102 -33t-40 -95v-450z" />
<glyph unicode="&#xff;" horiz-adv-x="908" d="M4 835q0 25 8 33q206 -10 238 -10t172 10q4 -12 4 -35t-8 -23q-16 0 -53 -14t-41 -28v-4q0 -36 214 -522l152 438q14 42 14 67t-31 44t-83 19q-8 0 -8 25t8 33l78 -6q52 -4 98 -4t98 4l78 6q4 -12 4 -35t-8 -23q-26 0 -71 -18t-59 -58l-358 -966q-46 -124 -104 -173 t-103 -49t-65 26t-20 61t28 55q166 0 220 172l24 72q14 42 22 68l-286 700q-22 48 -40 67t-55 31t-59 12q-8 0 -8 25zM220 1092q0 40 31 69t71 29t69 -30t29 -70t-30 -68t-70 -28t-70 29t-30 69zM586 1092q0 40 31 69t71 29t69 -30t29 -70t-30 -68t-70 -28t-70 29t-30 69z " />
<glyph unicode="&#x152;" horiz-adv-x="2070" d="M100 656q0 280 187 479t451 199q14 0 192 -11t256 -11l646 16q8 -58 31 -153t27 -119q-10 -10 -36 -10t-28 14q-30 110 -84 141t-148 31h-134q-172 0 -176 -26q-10 -48 -10 -168v-320q0 -12 86 -12h153t87 8t36 10t21 26t15 35t14 57q2 14 28 14t36 -10v-378 q-8 -8 -33 -8t-31 16q-26 100 -35 109t-28 21t-184 12t-165 -18v-310q0 -130 18 -182q6 -20 136 -20h96q186 0 252 34q30 16 67 71t59 131q2 12 34 12t44 -12q-98 -254 -108 -332l-682 12q-90 0 -223 -9t-239 -9q-264 0 -446 195t-182 475zM298 700q0 -160 57 -303t176 -240 t273 -97q100 0 158 14t85 55t38 82q15 56 15 173v592q0 132 -70 196q-52 48 -126 63t-196 15q-190 0 -300 -166t-110 -384z" />
<glyph unicode="&#x153;" horiz-adv-x="1614" d="M100 433q0 185 124 312t310 127q216 0 348 -174q104 172 300 172q92 0 161 -34t104 -90q67 -107 67 -224q0 -40 -11 -48t-71 -9t-448 -1q-10 0 -12 -6t-4 -10v-16q-2 -16 -2 -28l2 -24q8 -106 85 -191t211 -85q66 0 121 23t83 46t30 23q12 0 12 -25t-12 -37 q-140 -150 -296 -150q-210 0 -326 170q-126 -168 -338 -168q-182 0 -310 131t-128 316zM272 449q0 -151 85 -268t195 -117t178 100t68 251t-86 265t-196 114t-177 -97t-67 -248zM974 562q0 -14 12 -14h364q10 4 10 20q0 60 -53 145t-128 85t-125 -53q-80 -85 -80 -183z" />
<glyph unicode="&#x178;" horiz-adv-x="1298" d="M30 1293q0 23 8 31q192 -12 228 -12t276 12q4 -8 3 -31t-7 -23q-34 0 -77 -17t-43 -45t22 -66l224 -424q10 -10 20 4q272 412 272 482q0 22 -40 44t-98 22q-8 0 -8 23t8 31q222 -12 260 -12t104 6t84 6q4 -12 4 -33t-8 -21q-24 0 -84 -18t-80 -44q-76 -118 -221 -358 t-145 -268v-304q0 -124 16 -186q4 -14 54 -29t68 -15q8 0 8 -21t-4 -33q-200 10 -215 10t-245 -10q-8 8 -8 31t8 23q24 0 73 14t55 30q16 62 16 192v250q0 28 -43 111t-162 298t-136 238t-44 42t-71 33t-64 14q-8 0 -8 23zM390 1556q0 42 29 71t71 29t71 -29t29 -71t-29 -71 t-71 -29t-71 29t-29 71zM752 1556q0 42 29 71t71 29t71 -29t29 -71t-29 -71t-71 -29t-71 29t-29 71z" />
<glyph unicode="&#x2c6;" horiz-adv-x="920" d="M1080 1030q6 8 44 51q97 109 123.5 155t30.5 46q10 0 39 -49t52 -79t50 -60t43 -46t16 -18q0 -46 -15 -46t-77 45t-108 87q-44 -42 -104 -87t-77 -45t-17 46z" />
<glyph unicode="&#x2dc;" horiz-adv-x="826" d="M868 1056q0 56 55 98t106 42t133 -42t146 -42t94 68q4 2 12 2q18 0 18 -32q0 -56 -55 -98t-107 -42t-136 43t-144 43t-92 -70q-4 -2 -12 -2q-18 0 -18 32z" />
<glyph unicode="&#x2000;" horiz-adv-x="861" />
<glyph unicode="&#x2001;" horiz-adv-x="1722" />
<glyph unicode="&#x2002;" horiz-adv-x="861" />
<glyph unicode="&#x2003;" horiz-adv-x="1722" />
<glyph unicode="&#x2004;" horiz-adv-x="574" />
<glyph unicode="&#x2005;" horiz-adv-x="430" />
<glyph unicode="&#x2006;" horiz-adv-x="287" />
<glyph unicode="&#x2007;" horiz-adv-x="287" />
<glyph unicode="&#x2008;" horiz-adv-x="215" />
<glyph unicode="&#x2009;" horiz-adv-x="344" />
<glyph unicode="&#x200a;" horiz-adv-x="95" />
<glyph unicode="&#x2010;" horiz-adv-x="750" d="M116 420q0 102 24 102h2l482 24h2q12 0 12 -31t-7 -58q-8 -29 -19 -37l-482 -22h-4t-6 6t-4 16z" />
<glyph unicode="&#x2011;" horiz-adv-x="750" d="M116 420q0 102 24 102h2l482 24h2q12 0 12 -31t-7 -58q-8 -29 -19 -37l-482 -22h-4t-6 6t-4 16z" />
<glyph unicode="&#x2012;" horiz-adv-x="750" d="M116 420q0 102 24 102h2l482 24h2q12 0 12 -31t-7 -58q-8 -29 -19 -37l-482 -22h-4t-6 6t-4 16z" />
<glyph unicode="&#x2013;" horiz-adv-x="998" d="M56 422q0 16 7 59t21 43h850q12 0 12 -19t-10 -58t-13 -42t-7 -5h-848q-12 6 -12 22z" />
<glyph unicode="&#x2014;" horiz-adv-x="1556" d="M44 442q0 16 7 59t21 43h1432q12 0 12 -23t-9 -58t-13 -38t-6 -5h-1432q-12 6 -12 22z" />
<glyph unicode="&#x2018;" horiz-adv-x="320" d="M32 1088q0 74 21 125t51 85t63 61q65 53 87 53t36 -36q-54 -32 -88 -75q-52 -66 -52 -99.5t41 -78.5t41 -77t-40 -57t-74 -25t-56 6q-30 44 -30 118z" />
<glyph unicode="&#x2019;" horiz-adv-x="320" d="M36 1004q54 32 89 75q53 65 53 99t-41 79t-41 77t40 57t74 25t56 -6q28 -40 28 -116t-21 -127t-51 -85t-62 -61q-63 -53 -86.5 -53t-37.5 36z" />
<glyph unicode="&#x201a;" horiz-adv-x="320" d="M36 -160q54 32 89 75q53 65 53 99t-41 79t-41 77t40 57t74 25t56 -6q28 -40 28 -116t-21 -127t-51 -85t-62 -60q-64 -52 -88 -52t-36 34z" />
<glyph unicode="&#x201c;" horiz-adv-x="618" d="M32 1088q0 74 21 125t51 85t63 61q65 53 87 53t36 -36q-54 -32 -88 -75q-52 -66 -52 -99.5t41 -78.5t41 -77t-40 -57t-74 -25t-56 6q-30 44 -30 118zM320 1086q0 76 21 127t51 85t62 61q63 53 86.5 53t37.5 -36q-54 -32 -89 -75q-53 -65 -53 -99t41 -79t41 -77t-39 -57 t-75 -25t-56 6q-28 40 -28 116z" />
<glyph unicode="&#x201d;" horiz-adv-x="620" d="M36 1004q54 32 89 75q53 65 53 99t-41 79t-41 77t40 57t74 25t56 -6q28 -40 28 -116t-21 -127t-51 -85t-62 -61q-63 -53 -86.5 -53t-37.5 36zM324 1004q54 32 88 75q52 66 52 99.5t-41 78.5t-41 77t40 57t75 25t55 -6q30 -44 30 -118t-21 -125t-51 -85t-63 -61 q-65 -53 -87 -53t-36 36z" />
<glyph unicode="&#x201e;" horiz-adv-x="618" d="M36 -160q54 32 89 75q53 65 53 99t-41 79t-41 77t40 57t74 25t56 -6q28 -40 28 -116t-21 -127t-51 -85t-62 -60q-64 -52 -88 -52t-36 34zM324 -164q54 32 88 75q52 66 52 99.5t-41 78.5t-41 77t40 57t75 25t55 -6q30 -44 30 -118t-21 -125t-51 -85t-63 -60 q-66 -52 -88.5 -52t-34.5 34z" />
<glyph unicode="&#x2022;" horiz-adv-x="818" d="M190 526q0 88 64 152t152 64t151 -64t63 -152t-63 -152t-151 -64t-152 64t-64 152z" />
<glyph unicode="&#x2026;" horiz-adv-x="1608" d="M46 90q0 48 35 81t83 33t81 -33t33 -81t-33 -83t-81 -35t-83 35t-35 83zM672 90q0 48 35 81t83 33t81 -33t33 -81t-33 -83t-81 -35t-83 35t-35 83zM1298 90q0 48 35 81t83 33t81 -33t33 -81t-33 -83t-81 -35t-83 35t-35 83z" />
<glyph unicode="&#x202f;" horiz-adv-x="344" />
<glyph unicode="&#x2039;" horiz-adv-x="580" d="M54 489q0 29 16 47q256 154 412 310q46 -12 46 -38q0 -12 -18 -31t-74 -73t-124 -125t-82 -85l174 -180q20 -20 40 -39t31 -30l29.5 -29.5t15.5 -16.5q6 -7 6 -16t-6 -16t-12 -10t-16 -6t-12 -5q-10 20 -145 122t-267 186q-14 6 -14 35z" />
<glyph unicode="&#x203a;" horiz-adv-x="584" d="M54 806q0 10 6 17t12 10q26 13 28 13q156 -156 410 -310q18 -20 18 -48t-16 -34q-200 -128 -351 -254q-43 -36 -59 -54q-46 12 -46 36q0 14 10 24l21 21q11 11 22 21t30 29l211 217q-14 14 -82 85t-125 127t-73 73t-16 27z" />
<glyph unicode="&#x205f;" horiz-adv-x="430" />
<glyph unicode="&#x20ac;" horiz-adv-x="1310" d="M36 478q-10 0 1 37t31 59h784q10 0 -1 -37t-31 -59h-784zM36 700q-10 0 1 37t31 59h784q10 0 -1 -37t-31 -59h-784zM124 626q0 266 177 462t441 196q196 0 452 -50q-4 -256 -4 -276q0 -30 -40 -30q-18 0 -24 10q-54 266 -378 266q-188 0 -314 -166t-126 -378 q0 -339 213 -503q113 -87 280 -87t273 112q45 48 78 154q10 32 16 32l64 -16q0 -22 -27 -148t-39 -132q-138 -84 -446 -84q-252 0 -424 186t-172 452z" />
<glyph unicode="&#xe000;" horiz-adv-x="870" d="M0 0v870h870v-870h-870z" />
</font>
</defs>
</svg>
