<?xml version="1.0" standalone="no"?>
<!DOCTYPE svg PUBLIC "-//W3C//DTD SVG 1.1//EN" "http://www.w3.org/Graphics/SVG/1.1/DTD/svg11.dtd" >
<svg xmlns="http://www.w3.org/2000/svg">
<metadata></metadata>
<defs>
<font id="JosefinSansRegular" horiz-adv-x="614" >
<font-face units-per-em="2048" ascent="1536" descent="-512" />
<missing-glyph horiz-adv-x="500" />
<glyph horiz-adv-x="0" />
<glyph horiz-adv-x="2048" />
<glyph unicode="&#xd;" />
<glyph unicode=" " />
<glyph unicode="!" horiz-adv-x="411" d="M139 113q0 29 20.5 48t45.5 19t45 -19.5t20 -47.5q0 -29 -20.5 -48.5t-45 -19.5t-45 19.5t-20.5 48.5zM162 340v1196h86v-1196h-86z" />
<glyph unicode="&#x22;" horiz-adv-x="634" d="M129 967v508h90l-8 -508h-82zM401 967v508h91l-9 -508h-82z" />
<glyph unicode="#" horiz-adv-x="1169" d="M55 430l11 84h221q20 180 32 291h-217q2 11 9 82h219l53 430h86q-14 -109 -26.5 -215.5t-26.5 -214.5h291l53 430h86q-14 -109 -26.5 -215.5t-26.5 -214.5h251l-8 -82h-254q-12 -111 -32 -291h247l-8 -84h-252l-49 -430h-86l49 430h-291l-49 -430h-86l49 430h-219z M373 514h291q20 180 32 291h-290q-8 -74 -16.5 -146.5t-16.5 -144.5z" />
<glyph unicode="$" horiz-adv-x="1161" d="M135 182l58 58q160 -160 321 -172v657q-8 4 -38 14t-81 32t-97 59q-110 87 -114 229q-9 141 71 247q91 123 259 134v125h86v-127q148 -8 285 -125q-12 -14 -49 -66q-106 94 -236 109v-572q63 -23 133 -52.5t127 -75.5q131 -104 131 -275q0 -166 -115 -277 q-110 -106 -276 -118v-125h-86v127q-127 11 -240 78q-76 44 -139 116zM268 1075.5q0 -106.5 56.5 -159t152.5 -85.5q18 -12 37 -14v539q-117 -12 -184 -96q-62 -78 -62 -184.5zM600 72q129 13 214 92q91 84 91 217q0 70 -26.5 122t-70.5 88q-71 58 -208 103v-622z" />
<glyph unicode="%" horiz-adv-x="1486" d="M207 797q0 96 71 167q68 68 168 68q98 0 168 -68q72 -70 72 -167q0 -100 -72 -169q-70 -69 -168 -69q-100 0 -168 69q-71 70 -71 169zM293 796.5q0 -64.5 44 -109t109 -44.5q66 0 110 44t44 109t-44 108.5t-110 43.5t-109.5 -43.5t-43.5 -108zM397 0l611 1024h94 q-423 -708 -610 -1024h-95zM829 229q0 98 71 167q70 69 169 69q96 0 168 -69q72 -68 72 -167q0 -100 -72 -169q-72 -68 -168 -68q-99 0 -169 68q-71 70 -71 169zM915 227.5q0 -64.5 44.5 -108t109.5 -43.5q66 0 110 44t44 108t-44 109.5t-110 45.5t-110 -45.5t-44 -110z" />
<glyph unicode="&#x26;" horiz-adv-x="1433" d="M217 383q0 150 94 259q95 110 238 134q-86 137 -134.5 219t-63.5 147.5t-5 129.5q22 136 152 215q101 62 236 39q92 -16 196 -80l-35 -70q-105 57 -157 67q-110 23 -185 -24q-111 -70 -123 -174t49 -205q109 -174 214.5 -348t213.5 -348q30 78 37 154v86q15 180 135 183 q35 1 72 1h84v-84h-107q-63 0 -84.5 -47t-21.5 -172v-82q0 -84 -39 -162l133 -215l-65 -45q-29 45 -55.5 90t-55.5 88q-55 -72 -139 -113.5t-175.5 -41.5t-164 31.5t-126.5 84.5q-118 117 -118 283zM301 383q0 -130 91 -223q90 -92 226 -92q90 0 161 42t112 109l-293 479 q-128 -12 -212 -98q-85 -87 -85 -217z" />
<glyph unicode="'" horiz-adv-x="313" d="M117 967v508h90l-8 -508h-82z" />
<glyph unicode="(" horiz-adv-x="831" d="M274 598q0 285 105 551q92 234 233 381q41 -31 64 -47q-215 -248 -289 -609q-27 -131 -27 -276q0 -396 200 -725q56 -92 116 -160q-41 -31 -64 -47q-139 143 -233 381q-105 266 -105 551z" />
<glyph unicode=")" horiz-adv-x="819" d="M197 -291q216 249 289 609q26 131 26 276q0 400 -200 725q-56 92 -115 160l63 47q229 -247 310 -639q28 -139 28 -293q0 -289 -104 -551q-93 -231 -234 -381z" />
<glyph unicode="*" horiz-adv-x="686" d="M68 1075q47 27 94 52.5t94 52.5l-186 110q16 35 41 72q47 -29 94 -55.5t94 -55.5v224h90q0 -55 -1 -110.5t-1 -113.5q8 5 193 109l41 -72q-49 -29 -96.5 -55t-96.5 -55l190 -109l-47 -78q-47 29 -93 55.5t-93 55.5q-2 -53 -2 -106.5t-2 -106.5h-82v213 q-153 -88 -184 -107z" />
<glyph unicode="+" horiz-adv-x="1112" d="M176 432v84h326v326h86v-326h325v-84h-325v-328h-86v328h-326z" />
<glyph unicode="," horiz-adv-x="409" d="M35 -246l158 422h96l-176 -422h-78z" />
<glyph unicode="-" d="M109 346v84h376v-84h-376z" />
<glyph unicode="." horiz-adv-x="333" d="M109 68q0 29 20.5 48t46 19t46 -19.5t20.5 -47.5q0 -29 -20.5 -48.5t-46.5 -19.5t-46 19.5t-20 48.5z" />
<glyph unicode="/" horiz-adv-x="706" d="M35 -39l569 1546h86l-569 -1546h-86z" />
<glyph unicode="0" horiz-adv-x="1261" d="M74 657q0 134 35.5 255.5t104.5 218t173.5 157t242.5 60.5t240.5 -61.5t169.5 -160.5q134 -194 134 -462q0 -147 -46.5 -272.5t-123 -215.5t-177 -140t-209.5 -50t-208 52t-173.5 143t-118.5 216.5t-44 259.5zM162 663q0 -126 38 -237t102 -190q136 -168 319 -168 q90 0 174 43t149 121q143 172 143 430q0 252 -121 420q-59 83 -145 132.5t-193.5 49.5t-193.5 -47.5t-146.5 -129t-93 -190t-32.5 -234.5z" />
<glyph unicode="1" horiz-adv-x="530" d="M70 1247v84h280v-1331h-86v1247h-194z" />
<glyph unicode="2" horiz-adv-x="1034" d="M98 949q0 81 26 154t75 127q107 118 288 118q170 0 278 -119q105 -115 105 -291q0 -267 -358 -648q-99 -104 -195 -206h641v-84h-849q129 127 250.5 249t216.5 237q208 255 208 427q0 179 -103 275q-82 76 -184 76t-160 -33t-92 -80q-61 -84 -61 -212t80 -216l-51 -51 q-53 47 -84 121.5t-31 155.5z" />
<glyph unicode="3" horiz-adv-x="1054" d="M162 123l63 63q100 -118 248 -118q144 0 246 102t102 242q0 139 -102 241q-101 101 -246 101q-67 0 -129 -43q94 135 187.5 268t187.5 268h-508v84h661l-362 -504q167 -12 282 -129t115 -286q0 -177 -125.5 -302.5t-304.5 -125.5q-187 0 -315 139z" />
<glyph unicode="4" horiz-adv-x="1054" d="M76 375q188 244 374.5 486.5t374.5 486.5v-889h199v-84h-199v-375h-86v375h-663zM250 459h489v637q-123 -160 -244.5 -319t-244.5 -318z" />
<glyph unicode="5" horiz-adv-x="1112" d="M225 102l64 58q96 -92 229 -92q144 0 246 102t102 242q0 138 -102 238t-246 100q-149 0 -225 -93v674h588v-84h-502v-444q73 31 151 31t157 -33t137 -91q128 -125 128 -298q0 -175 -128 -302q-125 -126 -304 -126q-166 0 -295 118z" />
<glyph unicode="6" horiz-adv-x="1064" d="M102 386q-2 160 61.5 288.5t162 240t219.5 207t235 178.5q35 -46 56 -69q-219 -143 -344 -273.5t-181 -224.5q88 101 217 101q177 0 304 -126q126 -123 126 -300q0 -176 -126 -300t-304 -124q-174 0 -300 122q-124 120 -126 280zM186 407q0 -71 27 -132.5t74 -107.5 q101 -99 241 -99q143 0 244 99q102 100 102 241q0 139 -102 241q-101 101 -244 101q-140 0 -241 -101t-101 -242z" />
<glyph unicode="7" horiz-adv-x="960" d="M29 1247v84h831l-598 -1331h-100q141 313 281.5 623.5t281.5 623.5h-696z" />
<glyph unicode="8" horiz-adv-x="1044" d="M94 412q0 135 76 238.5t195 148.5q-70 33 -112 98.5t-42 136.5t23.5 127t65.5 97q91 90 216 90q129 0 219 -92t90 -216q0 -80 -42 -143t-107 -98q193 -75 256 -259q20 -61 20 -138.5t-34.5 -155.5t-93.5 -136q-125 -126 -304 -126q-174 0 -300 126t-126 302zM182 412 q0 -142 98 -243q99 -103 238 -103q145 0 246 103q102 104 102 243q0 135 -101 236q-102 102 -243 102t-242 -100q-98 -96 -98 -238zM297 1037q0 -44 17.5 -81.5t47.5 -64.5q65 -57 158.5 -57t156 57t62.5 145q0 93 -62 159q-65 69 -157 69t-158 -69q-65 -69 -65 -158z" />
<glyph unicode="9" horiz-adv-x="1075" d="M88 874q0 175 126 300q126 124 304 124t304 -124t126 -284.5t-63.5 -287.5t-162.5 -237.5t-220 -204.5t-234 -176q-14 16 -27.5 33.5t-27.5 33.5q217 145 343 274.5t181 225.5q-83 -100 -219 -100q-180 0 -304 123q-126 124 -126 300zM174 874q0 -140 102 -241 q103 -101 244 -101q142 0 241 101t99 240q0 71 -26.5 133.5t-72.5 108.5q-99 99 -241 99q-141 0 -244 -99q-102 -99 -102 -241z" />
<glyph unicode=":" horiz-adv-x="358" d="M106 68q0 29 20.5 48t47.5 19t46.5 -19.5t19.5 -47.5q0 -29 -19.5 -48.5t-46.5 -19.5t-47.5 19.5t-20.5 48.5zM106 580q0 29 20.5 48t47.5 19t46.5 -19.5t19.5 -47.5q0 -29 -19.5 -48.5t-46.5 -19.5t-47.5 19.5t-20.5 48.5z" />
<glyph unicode=";" horiz-adv-x="411" d="M4 -246l158 422h98l-176 -422h-80zM160 580q0 29 20.5 48t46.5 19q27 0 47.5 -19.5t20.5 -47.5q0 -29 -20.5 -48.5t-47.5 -19.5t-47 19.5t-20 48.5z" />
<glyph unicode="&#x3c;" horiz-adv-x="1392" d="M236 487q225 129 448 259.5t449 259.5v-113q-176 -102 -351.5 -202.5t-353.5 -203.5q550 -315 705 -405v-113q-225 129 -448.5 259t-448.5 259z" />
<glyph unicode="=" horiz-adv-x="1449" d="M205 276v84h1036v-84h-1036zM205 674v84h1036v-84h-1036z" />
<glyph unicode="&#x3e;" horiz-adv-x="1331" d="M236 -31v113q461 264 704 405q-397 230 -704 406v113q225 -129 448 -259.5t449 -259.5q-225 -129 -448.5 -259t-448.5 -259z" />
<glyph unicode="?" horiz-adv-x="925" d="M72 1210q65 193 244 264q65 25 148 25t156.5 -31.5t127.5 -85.5q116 -116 116 -282q0 -205 -200 -346q-35 -27 -69 -47.5t-61 -46.5q-59 -57 -59 -164v-160h-86v199q0 105 81 173q36 31 82 59t104 76q122 100 122 257q0 135 -90 225t-217 90t-208 -61t-116 -170 q-9 4 -75 26zM365 98q0 29 21.5 48.5t45.5 19.5q25 0 45.5 -19.5t20.5 -48.5t-20.5 -48t-45.5 -19t-46 19.5t-21 47.5z" />
<glyph unicode="@" horiz-adv-x="2027" d="M168 387q0 172 65.5 323.5t179 264t265 178.5t323.5 66t324 -66t264.5 -178.5t178 -264t65.5 -325.5q-11 -213 -114 -309q-81 -76 -210 -76h-184v82q0 25 1 48.5t1 45.5q-30 -76 -116 -131q-92 -59 -194 -59t-175.5 31.5t-127.5 84.5q-118 116 -118 283 q0 164 117.5 281.5t285.5 117.5q112 0 207 -62q91 -59 119 -134l8 180h70v-686h115q98 0 161.5 71.5t65.5 229.5t-56.5 295t-160 238.5t-237.5 160t-291 58.5t-291 -58.5t-237 -160t-159.5 -238.5t-58.5 -293t58.5 -291t159.5 -236.5t237.5 -159.5t291.5 -58q243 0 441 139 q37 -43 51 -62q-211 -161 -492 -161q-172 0 -323.5 65.5t-265 178t-179 264t-65.5 323.5zM682 385q0 -130 91 -223q90 -92 226 -92q137 0 227 92q91 93 91 223q0 132 -91 225q-90 92 -227 92q-136 0 -226 -92q-91 -93 -91 -225z" />
<glyph unicode="A" horiz-adv-x="1515" d="M123 0q160 377 317.5 749.5t317.5 749.5q160 -377 317.5 -749.5t317.5 -749.5h-86l-260 614h-576q-56 -130 -260 -614h-88zM506 696h506l-236 555q-4 14 -9 28.5t-9 29.5q-53 -156 -120 -307.5t-132 -305.5z" />
<glyph unicode="B" horiz-adv-x="1095" d="M152 0v1434h327q311 0 397 -196q31 -69 31 -179.5t-62.5 -206.5t-191.5 -131q204 -40 282 -219q26 -60 26 -142.5t-37 -151.5t-100 -115q-126 -93 -308 -93h-364zM236 82h272q247 0 339 165q30 54 30 131t-34 134t-91 95q-108 73 -279 73h-237v-598zM236 762h270 q145 0 231 85t86 222q0 283 -325 283h-262v-590z" />
<glyph unicode="C" horiz-adv-x="1372" d="M127 715q0 152 57.5 286t156.5 233t232.5 157.5t260.5 58.5q224 0 399 -102l-47 -70q-151 90 -306 90t-273 -52t-206 -142q-188 -191 -188 -461q0 -133 50 -251t138 -206t204 -139t270 -51t309 90l47 -70q-178 -102 -351.5 -102t-306.5 57t-232 156.5t-156.5 232.5 t-57.5 285z" />
<glyph unicode="D" horiz-adv-x="1335" d="M156 0v1434h301q302 0 507 -194q99 -93 156.5 -226t57.5 -275.5t-42 -269.5t-136.5 -231.5t-245 -171t-367.5 -66.5h-231zM240 84h178q320 0 508 197q168 176 168 436q0 285 -188 464q-179 171 -449 171h-217v-1268z" />
<glyph unicode="E" horiz-adv-x="1230" d="M174 0v1434h850v-82h-766v-588h686v-82h-686v-600h795v-82h-879z" />
<glyph unicode="F" horiz-adv-x="1202" d="M174 0v1434h850v-82h-766v-588h686v-82h-686v-682h-84z" />
<glyph unicode="G" horiz-adv-x="1396" d="M127 715q0 152 57.5 286t156.5 233t232.5 157.5t260.5 58.5q224 0 399 -102l-47 -70q-151 90 -306 90t-273 -52t-206 -142q-188 -191 -188 -461q0 -133 50 -251t138 -206q190 -190 453 -190q156 0 291 69v344q0 25 -10.5 39t-44.5 14h-240v82h270q61 0 86 -22.5t25 -81.5 v-424q-178 -102 -351.5 -102t-306.5 57t-232 156.5t-156.5 232.5t-57.5 285z" />
<glyph unicode="H" horiz-adv-x="1433" d="M193 0v1434h83v-670h881v670h90l-6 -1434h-84v682h-881v-682h-83z" />
<glyph unicode="I" horiz-adv-x="507" d="M213 0v1434h84v-1434h-84z" />
<glyph unicode="J" horiz-adv-x="638" d="M37 -211q149 8 241 113q97 109 97 288v1244h86v-1250q0 -218 -123 -348q-117 -125 -301 -129v82z" />
<glyph unicode="K" horiz-adv-x="1228" d="M137 0v1434h84v-643q0 -30 -4 -62q10 12 18.5 22.5t100.5 98.5t265 253t347 331h111l-602 -572q174 -217 342 -431t340 -431h-105q-528 669 -635 807q-2 -2 -178 -170v-637h-84z" />
<glyph unicode="L" horiz-adv-x="1214" d="M174 0v1434h84v-1352h795v-82h-879z" />
<glyph unicode="M" horiz-adv-x="1918" d="M205 0v1499q188 -244 374.5 -486.5t374.5 -486.5q188 244 375 486.5t375 486.5v-1499h-86v1178q4 40 4 82q-162 -225 -331 -441.5t-337 -435.5q-141 184 -278 363.5t-279 363.5l-86 111q-6 10 -12 19t-12 20q0 -42 4 -82v-1178h-86z" />
<glyph unicode="N" horiz-adv-x="1665" d="M205 0v1499q823 -958 1132 -1319q10 -14 19.5 -26.5t19.5 -26.5l-6 66v1241h86v-1500q-523 601 -1132 1309q-10 14 -19.5 26.5t-19.5 26.5l6 -65v-1231h-86z" />
<glyph unicode="O" horiz-adv-x="1720" d="M127 715q0 152 57.5 286t156.5 233t232.5 157.5t284.5 58.5q152 0 286 -58.5t233.5 -157.5t157.5 -233.5t58 -285.5q0 -152 -58 -285t-157.5 -232.5t-233.5 -156.5t-286 -57t-285 57t-232 156.5t-156.5 232.5t-57.5 285zM213 713q0 -135 50 -253t138 -205t205 -138 t250 -51t252 51t208 139q191 189 191 459q0 268 -190 461q-88 90 -207 141t-252 51t-251 -52t-206 -142q-188 -191 -188 -461z" />
<glyph unicode="P" horiz-adv-x="950" d="M152 0v1434h307q154 0 281 -86q157 -106 157 -285.5t-111.5 -284t-322.5 -104.5h-227v-674h-84zM236 758h213q194 0 289 102q75 80 75 198.5t-105 205.5q-106 88 -257 88h-215v-594z" />
<glyph unicode="Q" horiz-adv-x="1724" d="M127 715q0 152 57.5 286t156.5 233t232.5 157.5t284.5 58.5q152 0 286 -58.5t233.5 -157.5t157.5 -233.5t58 -262t-28.5 -224t-79.5 -177.5q-104 -166 -283 -255h436v-82h-628q-78 -16 -152 -16q-152 0 -285 57t-232 156.5t-156.5 232.5t-57.5 285zM213 714 q0 -134 50 -252t138 -206q190 -190 453 -190q135 0 254 51t208 139q191 189 191 459q0 268 -190 461q-88 90 -207 141t-252 51t-251 -52t-206 -141.5t-138 -208t-50 -252.5z" />
<glyph unicode="R" horiz-adv-x="1034" d="M152 0v1434h307q154 0 281 -86q157 -106 157 -289q0 -147 -79 -244.5t-228 -128.5q82 -174 163 -344t160 -342h-92q-5 11 -319 678q-36 -4 -72 -4h-194v-674h-84zM236 758h213q194 0 289 102q75 80 75 198.5t-105 205.5q-106 88 -257 88h-215v-594z" />
<glyph unicode="S" horiz-adv-x="1130" d="M135 182l58 58q174 -174 358 -174q144 0 246 82q108 88 108 229q0 219 -275 313q-71 25 -121 41t-102.5 36.5t-100.5 57.5q-119 91 -122 234q-1 14 -1 28q0 134 81 231q103 124 291 124q177 0 330 -129q-12 -14 -49 -66q-127 113 -283 113q-136 0 -214 -87 q-71 -79 -71 -200q0 -152 154 -223q47 -21 107.5 -41.5t141.5 -48t153 -75.5q167 -112 167 -304q0 -178 -125 -290q-121 -107 -305 -107q-251 0 -426 198z" />
<glyph unicode="T" horiz-adv-x="1132" d="M0 1352v82h1133v-82h-525v-1352h-84v1352h-524z" />
<glyph unicode="U" horiz-adv-x="1335" d="M188 463v971h84v-965q0 -189 112 -299q106 -104 286 -104q174 0 286 104q113 106 113 299v965h86v-971q0 -229 -139 -357q-132 -122 -347 -122q-103 0 -191.5 30.5t-153.5 91.5q-136 128 -136 357z" />
<glyph unicode="V" horiz-adv-x="1478" d="M111 1434h86q133 -315 265 -625.5t265 -626.5q4 -14 9 -28.5t9 -28.5q4 14 9.5 28.5t9.5 28.5q133 315 265 626t265 626h86q-160 -377 -317.5 -750t-317.5 -750q-220 518 -634 1500z" />
<glyph unicode="W" horiz-adv-x="2269" d="M111 1434h86q133 -315 264 -626.5t266 -625.5q4 -14 9 -28.5t9 -28.5q70 205 161 407.5t177 403.5q-118 282 -211 498h89q304 -731 528 -1252q4 -14 9 -28.5t9 -28.5q4 14 9.5 28.5t9.5 28.5q135 315 266 626t264 626h86q-160 -377 -317.5 -750t-317.5 -750l-362 854 l-19 56q-82 -227 -183 -456.5t-198 -453.5q-220 518 -634 1500z" />
<glyph unicode="X" horiz-adv-x="1433" d="M190 0l474 735q-113 174 -226.5 349.5t-226.5 349.5h102q98 -150 194.5 -299.5t148.5 -228.5q63 -97 67 -107q6 10 11 18t9 19q112 171 385 598h103l-455 -709q117 -182 235.5 -362.5t235.5 -362.5h-104l-363 555q-16 25 -31.5 53.5t-33.5 53.5q-4 -10 -10.5 -19.5 t-10.5 -19.5q-100 -156 -199.5 -310.5t-199.5 -312.5h-105z" />
<glyph unicode="Y" horiz-adv-x="1306" d="M70 1434h104q113 -193 227.5 -379.5t225.5 -378.5q6 -16 12 -29.5t12 -28.5h2q14 33 23 58q246 406 450 758h105l-529 -891v-543h-102v543q-217 364 -530 891z" />
<glyph unicode="Z" horiz-adv-x="1433" d="M166 0v82q246 319 488.5 635.5t488.5 634.5h-809q-63 0 -98 24.5t-35 83.5v45h86v-24q0 -25 13 -36t48 -11h903v-82q-246 -317 -488.5 -634t-488.5 -636h1037v-82h-1145z" />
<glyph unicode="[" horiz-adv-x="692" d="M170 -305v1833h358v-84h-270v-1665h270v-84h-358z" />
<glyph unicode="\" horiz-adv-x="708" d="M20 1507h95q143 -389 284.5 -773t284.5 -773h-94q-329 894 -570 1546z" />
<glyph unicode="]" horiz-adv-x="700" d="M156 -221h270v1665h-270v84h358v-1833h-358v84z" />
<glyph unicode="^" horiz-adv-x="962" d="M229 981q61 92 123 185.5t123 185.5q61 -92 122.5 -185.5t123.5 -185.5h-68q-45 61 -89 123.5t-89 124.5l-178 -248h-68z" />
<glyph unicode="_" horiz-adv-x="1228" d="M205 0v84h819v-84h-819z" />
<glyph unicode="`" horiz-adv-x="409" d="M-59 1253h88q47 -68 92 -136t92 -136h-68q-51 68 -102 136.5t-102 135.5z" />
<glyph unicode="a" horiz-adv-x="1030" d="M100 385q0 162 118 281q116 118 286 118q114 0 209 -62q84 -55 116 -134l9 180h69v-768h-78v92q0 23 1 43.5t1 42.5q-25 -73 -113 -132q-90 -60 -194 -60t-178 31.5t-128 84.5q-118 117 -118 283zM186 385q0 -128 92 -223q88 -92 226 -92q133 0 225 92t92 223 q0 133 -92 225t-225 92q-138 0 -226 -92q-92 -95 -92 -225z" />
<glyph unicode="b" horiz-adv-x="1083" d="M168 0v1536h86v-854q-4 -23 -5 -46.5t-3 -45.5q25 73 116 132q97 62 195 62t172 -31.5t128 -86.5q118 -119 118 -281q0 -166 -118 -283q-118 -116 -286 -116q-181 0 -285 122q-30 35 -42 70l2 -86v-92h-78zM254 385q0 -130 91 -223q90 -92 226 -92q137 0 227 92 q91 93 91 223q0 132 -91 225q-90 92 -227 92q-136 0 -226 -92q-91 -93 -91 -225z" />
<glyph unicode="c" horiz-adv-x="794" d="M74 385q0 167 118 283t283 116q147 0 256 -88l-55 -63q-86 69 -201 69q-134 0 -224 -92q-91 -93 -91 -225q0 -130 91 -223q89 -92 215 -92q1 0 2 -1q124 0 208 68q40 -46 53 -63q-114 -88 -254 -88q-165 0 -283 116t-118 283z" />
<glyph unicode="d" horiz-adv-x="1073" d="M109 385q0 166 115 281q118 118 286 118q116 0 211 -62q90 -58 117 -132l-9 92v854h84v-1536h-75v178q-25 -73 -114 -132q-90 -60 -194 -60t-177.5 31.5t-128.5 84.5q-115 114 -115 283zM195 385q0 -130 91 -223q90 -92 224 -92q135 0 227 92t92 223q0 133 -92 225 t-227 92q-134 0 -224 -92q-91 -93 -91 -225z" />
<glyph unicode="e" horiz-adv-x="923" d="M74 385q0 167 118 283t283 116q119 0 218 -80q98 -81 134 -206l-634 -252q35 -78 110.5 -127t188 -49t198.5 86q5 -6 53 -64q-115 -106 -268 -106q-165 0 -283 116t-118 283zM168 326l551 219q-35 70 -100.5 113.5t-135 43.5t-125 -21.5t-96.5 -60.5q-100 -94 -100 -225 q0 -33 6 -69z" />
<glyph unicode="f" horiz-adv-x="602" d="M45 688v84h133v289q0 221 123 348q115 119 301 127v-82q-148 -4 -240 -106q-100 -111 -100 -285v-291h256v-84h-256v-688h-84v688h-133z" />
<glyph unicode="g" horiz-adv-x="1060" d="M100 385q0 162 118 281q116 118 286 118q114 0 209 -62q84 -55 116 -134l9 180h69v-840q0 -196 -115 -320q-108 -116 -276 -120q-86 2 -173 32.5t-142 90.5l61 63q45 -49 114.5 -73.5t135 -24.5t122 25.5t97.5 72.5q90 103 90 260v148q2 23 4 47.5t4 46.5 q-31 -74 -117.5 -131t-189.5 -58h-6q-98 0 -170 31q-74 31 -128 84q-118 117 -118 283zM186 385q0 -128 92 -223q88 -92 226 -92q133 0 225 92t92 223q0 133 -92 225t-225 92q-138 0 -226 -92q-92 -95 -92 -225z" />
<glyph unicode="h" horiz-adv-x="1024" d="M211 0v1536h86v-874l-6 -93q41 98 130 154.5t204 58.5h7q110 0 173 -62q65 -64 69 -165v-555h-86v532q-4 66 -48 115t-118 51h-12q-66 0 -118 -20q-58 -22 -101 -58q-94 -79 -94 -200v-420h-86z" />
<glyph unicode="i" horiz-adv-x="382" d="M129 1040q0 29 20.5 48.5t47.5 19.5t47 -19.5t20 -48.5t-20.5 -48t-46.5 -19q-27 0 -47.5 19t-20.5 48zM154 0v768h84v-768h-84z" />
<glyph unicode="j" horiz-adv-x="460" d="M86 -307q113 113 113 297v778h84v-776q0 -234 -136 -361zM176 1040q0 29 20.5 48.5t46.5 19.5t46 -19.5t20 -48.5t-20.5 -48t-46 -19t-46 19t-20.5 48z" />
<glyph unicode="k" horiz-adv-x="919" d="M158 0v1536h86v-1147l426 397q43 -43 51 -53l-285 -268q86 -117 170 -232.5t170 -232.5h-100q-220 295 -301 408l-131 -123v-285h-86z" />
<glyph unicode="l" horiz-adv-x="382" d="M154 0v1536h84v-1536h-84z" />
<glyph unicode="m" horiz-adv-x="1630" d="M211 0v768h78v-136q0 -28 2 -63q41 98 130 155.5t199 58.5h4q108 0 172 -55q66 -56 76 -148q43 92 131.5 147t200.5 56h4q110 -1 174 -63q66 -64 70 -165v-555h-84v532q-4 66 -48 115t-118 51h-12q-66 0 -118 -18q-58 -20 -101 -58q-91 -77 -97 -196v-426h-86v532 q-4 66 -48 115t-118 51h-12q-66 0 -118 -20q-58 -22 -101 -58q-94 -79 -94 -200v-420h-86z" />
<glyph unicode="n" horiz-adv-x="1013" d="M211 0v768h78v-136q0 -28 2 -63q41 96 131 155.5t204 59.5t179 -63.5t69 -165.5v-555h-86v532q-4 66 -48 115t-118 51h-12q-66 0 -118 -20q-58 -22 -101 -58q-94 -79 -94 -200v-420h-86z" />
<glyph unicode="o" horiz-adv-x="964" d="M74 384q0 83 31.5 156.5t86.5 127.5q117 118 283 118q168 0 287 -118q119 -117 119 -283q0 -167 -119 -283q-120 -116 -287 -116q-165 0 -283 116t-118 282zM160 385q0 -131 92 -223t223 -92t223 92q95 95 95 223t-95 223q-94 94 -223 94t-223 -94q-92 -92 -92 -223z" />
<glyph unicode="p" horiz-adv-x="1075" d="M137 -512v1280h74q0 -47 1 -92t1 -92q23 72 117 135q93 63 194 63t174.5 -31.5t127.5 -84.5q118 -116 118 -283q0 -164 -117.5 -281.5t-285.5 -117.5q-179 0 -284 120q-30 35 -42 70q5 -53 8 -84v-602h-86zM223 383q0 -132 91 -225q90 -92 227 -92q136 0 226 92 q91 93 91 226q0 67 -24.5 124t-66.5 99q-91 91 -226 91q-136 0 -227 -91t-91 -224z" />
<glyph unicode="q" horiz-adv-x="1048" d="M104 383q0 166 118 283q118 116 286 116q173 0 284 -126q31 -35 44 -72q2 47 2 92v92h73v-1280h-86v602q5 61 11 84q-50 -126 -212 -174q-53 -16 -126.5 -16t-147.5 31.5t-128 86.5q-118 119 -118 281zM190 384q0 -67 25 -125t68 -101q92 -92 225 -92q135 0 227 92 t92 225q0 134 -92 224q-93 91 -227 91q-132 0 -225 -91t-93 -223z" />
<glyph unicode="r" horiz-adv-x="677" d="M211 0v768h78v-136q0 -28 2 -63q45 100 136 156.5t185 58.5l-6 -84q-132 -4 -219 -82q-90 -80 -90 -198v-420h-86z" />
<glyph unicode="s" horiz-adv-x="720" d="M117 80q42 48 55 61q69 -73 193 -73q88 0 137 76q18 26 18 72t-26.5 74.5t-68.5 46t-91 31t-91 36.5q-100 53 -100 163q0 99 74 160q65 53 148 53q43 0 105 -19.5t105 -68.5q-12 -16 -25 -30.5t-24 -30.5q-25 29 -69.5 47t-79.5 18t-59.5 -7t-45.5 -23q-42 -31 -42 -85 q0 -57 30 -83q29 -26 70 -43t90 -32t90 -40q96 -59 96 -168q0 -84 -55 -149q-69 -82 -193 -82q-63 0 -131.5 22.5t-109.5 73.5z" />
<glyph unicode="t" horiz-adv-x="587" d="M76 682v84h178v502h86v-502h235v-84h-235v-682h-86v682h-178z" />
<glyph unicode="u" horiz-adv-x="1083" d="M211 213v555h86v-532q4 -66 48 -115q43 -49 117 -51h13q67 0 119 20q58 22 100 58q94 79 94 200v420h86v-776h-86v114l7 93q-41 -98 -132.5 -156.5t-203.5 -58.5q-113 0 -178.5 63.5t-69.5 165.5z" />
<glyph unicode="v" horiz-adv-x="1024" d="M111 768h86q84 -162 172 -328t161 -331q74 166 162 330.5t172 328.5h86q-207 -403 -420 -815q-104 205 -209.5 407.5t-209.5 407.5z" />
<glyph unicode="w" horiz-adv-x="1581" d="M115 768h86q80 -164 164 -329t157 -330q53 123 114 243.5t120 243.5q-23 43 -42.5 86t-41.5 86h86q80 -164 164 -329t157 -330q74 166 158 330.5t164 328.5h86q-152 -305 -408 -815q-70 141 -139.5 278.5t-138.5 278.5q-70 -141 -139.5 -278.5t-139.5 -278.5 q-102 205 -203.5 407.5t-203.5 407.5z" />
<glyph unicode="x" horiz-adv-x="862" d="M74 0l286 395q-146 196 -274 373h107l239 -326q181 252 234 324h104l-287 -395q70 -94 137.5 -186.5t137.5 -184.5h-107q-59 80 -119.5 162t-119.5 162l-232 -324h-106z" />
<glyph unicode="y" horiz-adv-x="1007" d="M78 768h90q86 -172 176 -344t166 -346q78 174 167 346t175 344h90q-238 -479 -641 -1280h-90l254 508q-98 193 -193.5 385t-193.5 387z" />
<glyph unicode="z" horiz-adv-x="923" d="M86 0v84q154 154 291 301t291 301h-410q-63 0 -98 24.5t-35 84.5v45h86v-25q0 -25 13 -36t48 -11h514v-84q-154 -154 -291 -300t-290 -300h620v-84h-739z" />
<glyph unicode="{" horiz-adv-x="595" d="M61 563v94q88 4 131 99q31 68 31 178v352q0 168 61 214q29 22 65 25t77 3h96v-84h-106q-63 0 -85 -48t-22 -173v-291q0 -211 -85 -284q-23 -21 -48 -36q60 -34 85 -82q48 -97 48 -239v-289q0 -127 21.5 -175t85.5 -48h106v-82h-96q-43 0 -81 3t-65 28q-57 56 -57 254v305 q0 177 -81 247q-32 27 -81 29z" />
<glyph unicode="|" horiz-adv-x="491" d="M197 -475v1909h86v-1909h-86z" />
<glyph unicode="}" horiz-adv-x="655" d="M133 -221h107q63 0 84.5 48t21.5 175v336q0 167 92 242q23 20 41 32q-59 33 -84 80q-49 95 -49 240v291q0 125 -21.5 173t-84.5 48h-107v84h96q39 0 76 -2t65 -24q62 -48 62 -216v-307q0 -127 19.5 -186.5t51.5 -96.5t91 -39v-94q-100 -7 -140 -126q-22 -68 -22 -195 v-303q0 -170 -62 -217q-28 -21 -65 -23t-76 -2h-96v82z" />
<glyph unicode="~" horiz-adv-x="1001" d="M262 963q4 71 60 115q47 38 102 38q90 0 160 -74q54 -57 110 -57q72 0 106 51q13 21 17 54l53 -5q-4 -72 -59 -115q-48 -38 -103 -38t-90.5 19.5t-70.5 54.5q-50 57 -109 57q-70 0 -106 -51q-15 -21 -19 -54z" />
<glyph unicode="&#xa0;" />
<glyph unicode="&#xa1;" horiz-adv-x="409" d="M139 993q0 -29 20.5 -48t45.5 -19t45 19.5t20 47.5q0 29 -20.5 48.5t-45 19.5t-45 -19.5t-20.5 -48.5zM162 -430h86v1196h-86v-1196z" />
<glyph unicode="&#xa2;" horiz-adv-x="788" d="M74 385q0 150 96 261q97 112 242 132v119h86v-113q137 -8 233 -88l-55 -63q-78 61 -178 65v-628q100 6 178 67q40 -46 53 -63q-98 -82 -231 -86v-127h-86v133q-145 20 -242 132q-96 111 -96 259zM160 384q0 -116 70.5 -200t181.5 -104v608q-111 -16 -182 -102 q-70 -86 -70 -202z" />
<glyph unicode="&#xa3;" horiz-adv-x="1175" d="M55 0v84h90q68 0 89 54q18 45 18 212v256h-133v84h133v334q0 143 101.5 208.5t257 65.5t230 -54t115.5 -136l-63 -39q-43 75 -83 100q-72 45 -206.5 45t-200 -54t-65.5 -148v-322h254v-84h-254v-338q0 -59 -7 -107t-38 -77h444q125 0 173 21.5t48 84.5v107h86v-121 q0 -88 -28 -117q-57 -59 -213 -59h-748z" />
<glyph unicode="&#xa4;" horiz-adv-x="1024" d="M203 489l71 72q-61 78 -61 176t55 172l-65 68l61 59l66 -65q78 61 176 61q97 0 176 -63l66 67l61 -61l-66 -64q57 -76 57.5 -173t-61.5 -175l70 -71l-59 -60l-72 70q-73 -56 -172 -56q-94 0 -170 54l-72 -70zM299 739q0 -88 61.5 -149.5t145.5 -61.5q89 0 148 62 q61 62 61 149q0 85 -61 147q-59 62 -148 62q-84 0 -145.5 -61.5t-61.5 -147.5z" />
<glyph unicode="&#xa5;" horiz-adv-x="1306" d="M70 1434h104q171 -293 453 -758q6 -16 12 -29.5t12 -28.5h2q14 33 23 58q246 406 450 758h105q-123 -205 -242 -406t-241 -405h241v-84h-287v-250h287v-84h-287v-205h-102v205h-293v84h293v250h-293v84h246q-123 205 -241.5 405.5t-241.5 405.5z" />
<glyph unicode="&#xa6;" horiz-adv-x="440" d="M182 240h86v-717h-86v717zM182 717v717h86v-717h-86z" />
<glyph unicode="&#xa7;" horiz-adv-x="1024" d="M277 696q-7 49 3 98q23 102 105 158q85 55 197 19q-29 47 -55.5 94t-57.5 100t-45 95.5t-13 73.5q2 51 37.5 85.5t78 58t77.5 44.5q16 -29 43 -72l-92 -55q-53 -31 -50 -79t54 -135.5t95 -164t81 -137t43 -109.5t-4 -95q-21 -95 -106 -155q-89 -57 -197 -20 q29 -47 56.5 -96.5t58.5 -101.5t45 -94t13 -73q-2 -50 -44 -92q-27 -31 -70 -53.5t-77 -42.5q-11 20 -43 71l92 56q53 29 47.5 80t-54.5 133.5t-75.5 127t-45.5 77.5q-31 53 -60.5 104t-36.5 100zM359.5 755q-2.5 -40 13.5 -86t64 -77t95.5 -28t77 19.5t50.5 42.5 q42 55 38 109t-21.5 84.5t-42.5 50.5q-56 45 -112.5 41t-89.5 -26.5t-51.5 -56t-21 -73.5z" />
<glyph unicode="&#xa8;" horiz-adv-x="757" d="M141 1040q0 29 20.5 48.5t46.5 19.5t46 -19.5t20 -48.5t-20.5 -48t-46 -19t-46 19t-20.5 48zM479 1040q0 29 20.5 48.5t47.5 19.5t46 -19.5t19 -48.5t-19.5 -48t-45.5 -19q-27 0 -47.5 19t-20.5 48z" />
<glyph unicode="&#xa9;" horiz-adv-x="1624" d="M291 762q0 226 153 378q153 150 375 150q221 0 375 -150q154 -151 154 -378q0 -224 -154 -376q-152 -150 -375 -150t-375 150q-153 152 -153 376zM340 760q0 -201 140 -342q136 -135 338 -135q99 0 187.5 35.5t152.5 99.5q140 140 140 342q0 205 -140 344 q-138 139 -341 139q-198 0 -337 -139q-140 -140 -140 -344zM500 768q0 138 96 236q95 96 233 96q92 0 170 -45q-11 -14 -20 -33q-70 41 -139.5 41t-122.5 -23.5t-93 -63.5q-85 -85 -85 -210q0 -121 85 -206q87 -87 209 -87q64 0 144 41l22 -31q-76 -47 -157 -47t-141 26.5 t-105 71.5q-96 98 -96 234z" />
<glyph unicode="&#xaa;" horiz-adv-x="1198" d="M158 730q0 117 85 202q84 85 207 85q82 0 150 -44q61 -40 84 -97l7 130h49v-554h-56v66q0 17 0.5 32t0.5 30q-18 -52 -81 -95q-65 -43 -140 -43t-128.5 22.5t-92.5 61.5q-85 84 -85 204zM220 730q0 -93 67 -161q63 -67 163 -67q96 0 162 66.5t66 161.5q0 96 -66 162 t-162 66q-100 0 -163 -66q-67 -69 -67 -162z" />
<glyph unicode="&#xab;" horiz-adv-x="1230" d="M240 489q88 84 175 165t175 165v-98l-228 -232l228 -233v-98zM590 489q88 84 175 165t175 165v-98q-132 -132 -227 -232l227 -233v-98z" />
<glyph unicode="&#xac;" horiz-adv-x="1144" d="M205 432v68h737v-197h-86v129h-651z" />
<glyph unicode="&#xad;" d="M109 346v84h376v-84h-376z" />
<glyph unicode="&#xae;" horiz-adv-x="1640" d="M291 762q0 226 153 378q153 150 375 150q221 0 375 -150q154 -151 154 -378q0 -224 -154 -376q-152 -150 -375 -150t-375 150q-153 152 -153 376zM340 760q0 -201 140 -342q136 -135 338 -135q99 0 187.5 35.5t152.5 99.5q140 140 140 342q0 205 -140 344 q-138 139 -341 139q-198 0 -337 -139q-140 -140 -140 -344zM674 430v678h145q73 0 119 -32q88 -62 88 -138q0 -151 -145 -184q39 -82 76.5 -163t76.5 -161h-43q-78 164 -151 322q-10 -2 -18 -2h-109v-320h-39zM713 788h102q133 0 164 94q8 25 8 48q0 55 -50 97t-122 42h-102 v-281z" />
<glyph unicode="&#xaf;" horiz-adv-x="817" d="M174 995v62h471v-62h-471z" />
<glyph unicode="&#xb0;" horiz-adv-x="577" d="M104 1146q0 75 51.5 126t126.5 51t126 -51t51 -126t-51.5 -125t-126 -50t-126 50t-51.5 125zM166 1146q0 -48 34 -82t82 -34t82.5 34t34.5 82t-34.5 82t-82.5 34t-82 -34t-34 -82z" />
<glyph unicode="&#xb1;" horiz-adv-x="1073" d="M176 250v82h737v-82h-737zM176 760v84h326v325h86v-325h325v-84h-325v-328h-86v328h-326z" />
<glyph unicode="&#xb2;" horiz-adv-x="815" d="M126 848q0 40 13 76t37 62q53 59 143 59q84 0 137 -59q52 -57 52 -144q0 -132 -177 -320q-49 -51 -96 -102h317v-41h-420q64 63 124 123t107 117q103 126 103 211q0 88 -51 136q-41 37 -91.5 37t-79 -16t-45.5 -40q-30 -41 -30 -104t40 -107l-26 -25q-26 23 -41.5 60 t-15.5 77z" />
<glyph unicode="&#xb3;" horiz-adv-x="858" d="M129 444l31 31q49 -59 122 -59q71 0 121.5 50.5t50.5 119.5q0 68 -50 119q-50 49 -122 49q-33 0 -63 -21q46 67 92 132.5t93 131.5h-251v41h326l-179 -248q83 -6 140 -63q56 -58 56 -141q0 -87 -62 -149t-150 -62q-92 0 -155 69z" />
<glyph unicode="&#xb4;" horiz-adv-x="491" d="M205 981l184 272h88l-102 -136t-103 -136h-67z" />
<glyph unicode="&#xb5;" horiz-adv-x="1116" d="M211 -412v1180h86v-532q4 -66 48 -115t117.5 -51t131 19.5t100.5 58.5q94 79 94 200v420h86v-776h-86v114l7 93q-41 -98 -130.5 -155.5t-201.5 -58.5t-166 72v-469h-86z" />
<glyph unicode="&#xb6;" horiz-adv-x="1048" d="M78 1200q0 142 96 238q98 98 238 98h419v-1536h-86v1452h-247v-1452h-86v866q-141 0 -238 97q-96 96 -96 237z" />
<glyph unicode="&#xb7;" horiz-adv-x="337" d="M109 576q0 29 20.5 48t46 19t46 -19.5t20.5 -47.5q0 -29 -20.5 -48.5t-46.5 -19.5t-46 19.5t-20 48.5z" />
<glyph unicode="&#xb8;" horiz-adv-x="925" d="M240 -346q14 6 28.5 12t28.5 12q10 -39 43 -64.5t85 -25.5t87 39t35 93.5t-24.5 82t-55.5 48t-55.5 42t-24.5 60.5v47h59v-12q0 -48 21.5 -68t36.5 -28q110 -61 110 -161.5t-52 -155t-124 -54.5q-155 0 -198 133z" />
<glyph unicode="&#xb9;" horiz-adv-x="530" d="M78 952v38h129v-612h-40v574h-89z" />
<glyph unicode="&#xba;" horiz-adv-x="960" d="M149 729q0 60 23 113t62 92q85 85 205 85q121 0 207 -85q85 -85 85 -204q0 -121 -85 -204q-87 -84 -207 -84q-119 0 -205 84q-85 83 -85 203zM211 730q0 -95 66.5 -161.5t161.5 -66.5q94 0 160 67q69 68 69 161q0 92 -69 161q-67 67 -160 67t-161 -67q-67 -67 -67 -161z " />
<glyph unicode="&#xbb;" horiz-adv-x="1230" d="M240 158l350 331q-88 84 -175 165t-175 165v-98q132 -132 227 -232l-227 -233v-98zM590 158l350 331q-88 84 -175 165t-175 165v-98l228 -232l-228 -233v-98z" />
<glyph unicode="&#xbc;" horiz-adv-x="1982" d="M205 1225v59h198v-944h-61v885h-137zM572 -39l569 1545h86l-569 -1545h-86zM777 279q140 182 278.5 362.5t278.5 362.5v-662h148v-63h-148v-279h-64v279h-493zM907 342h363v474q-91 -119 -181.5 -237.5t-181.5 -236.5z" />
<glyph unicode="&#xbd;" horiz-adv-x="2189" d="M191 1225v60h198v-945h-61v885h-137zM572 -39l569 1545h86l-569 -1545h-86zM846 671.5q0 57.5 18.5 109t53.5 90.5q75 83 204 83q120 0 196 -84q74 -81 74 -206q0 -189 -253 -459q-70 -73 -138 -146h454v-59h-601q91 90 177 176.5t153 167.5q148 181 148 302 q0 127 -73 195q-58 54 -130.5 54t-113.5 -23.5t-65 -56.5q-43 -60 -43 -150.5t57 -152.5l-36 -36q-38 33 -60 85.5t-22 110z" />
<glyph unicode="&#xbe;" horiz-adv-x="2613" d="M261 421l49 49q77 -91 191 -91q111 0 189.5 78.5t78.5 186.5t-78 187q-78 78 -190 78q-52 0 -100 -34q73 105 145 207.5t145 206.5h-392v65h510l-280 -389q129 -9 218 -100q89 -90 89 -221q0 -136 -97 -233t-235 -97q-144 0 -243 107zM930 -39l569 1546h86l-569 -1546 h-86zM1081 279q139 182 278 362.5t279 362.5v-662h148v-63h-148v-279h-64v279h-493zM1210 342h364v474q-92 -119 -182 -237.5t-182 -236.5z" />
<glyph unicode="&#xbf;" horiz-adv-x="874" d="M72 4q0 205 200 346q35 27 69 47.5t61 46.5q59 57 59 164v160h86v-199q0 -105 -81 -173q-36 -31 -82 -59t-104 -76q-122 -100 -122 -257q0 -135 90 -225t217 -90t208 61t116 170q9 -4 75 -26q-65 -193 -244 -264q-65 -25 -148 -25t-156.5 31.5t-127.5 85.5 q-116 116 -116 282zM438 1006q0 29 20.5 48t45.5 19t46 -19.5t21 -47.5q0 -29 -21.5 -48.5t-45.5 -19.5q-25 0 -45.5 19.5t-20.5 48.5z" />
<glyph unicode="&#xc0;" horiz-adv-x="1515" d="M123 0q160 377 317.5 749.5t317.5 749.5q160 -377 317.5 -749.5t317.5 -749.5h-86l-260 614h-576q-56 -130 -260 -614h-88zM506 696h506l-236 555q-4 14 -9 28.5t-9 29.5q-53 -156 -120 -307.5t-132 -305.5zM523 1808h88q47 -68 92 -136t92 -136h-68q-51 68 -102 136.5 t-102 135.5z" />
<glyph unicode="&#xc1;" horiz-adv-x="1515" d="M123 0q160 377 317.5 749.5t317.5 749.5q160 -377 317.5 -749.5t317.5 -749.5h-86l-260 614h-576q-56 -130 -260 -614h-88zM506 696h506l-236 555q-4 14 -9 28.5t-9 29.5q-53 -156 -120 -307.5t-132 -305.5zM717 1536l184 272h88l-102 -136t-103 -136h-67z" />
<glyph unicode="&#xc2;" horiz-adv-x="1515" d="M123 0q160 377 317.5 749.5t317.5 749.5q160 -377 317.5 -749.5t317.5 -749.5h-86l-260 614h-576q-56 -130 -260 -614h-88zM506 696h506l-236 555q-4 14 -9 28.5t-9 29.5q-53 -156 -120 -307.5t-132 -305.5zM514 1536q61 92 123 185.5t123 185.5q61 -92 122.5 -185.5 t123.5 -185.5h-68q-45 61 -89 123.5t-89 124.5l-178 -248h-68z" />
<glyph unicode="&#xc3;" horiz-adv-x="1515" d="M123 0q160 377 317.5 749.5t317.5 749.5q160 -377 317.5 -749.5t317.5 -749.5h-86l-260 614h-576q-56 -130 -260 -614h-88zM448 1565q4 71 60 115q47 38 102 38q90 0 160 -74q54 -57 110 -57q72 0 106 51q13 21 17 54l53 -5q-4 -72 -59 -115q-48 -38 -103 -38t-90.5 19.5 t-70.5 54.5q-50 57 -109 57q-70 0 -106 -51q-15 -21 -19 -54zM506 696h506l-236 555q-4 14 -9 28.5t-9 29.5q-53 -156 -120 -307.5t-132 -305.5z" />
<glyph unicode="&#xc4;" horiz-adv-x="1515" d="M123 0q160 377 317.5 749.5t317.5 749.5q160 -377 317.5 -749.5t317.5 -749.5h-86l-260 614h-576q-56 -130 -260 -614h-88zM506 696h506l-236 555q-4 14 -9 28.5t-9 29.5q-53 -156 -120 -307.5t-132 -305.5zM524 1634q0 29 20.5 48.5t46.5 19.5t46 -19.5t20 -48.5 t-20.5 -48t-46 -19t-46 19t-20.5 48zM862 1634q0 29 20.5 48.5t47.5 19.5t46 -19.5t19 -48.5t-19.5 -48t-45.5 -19q-27 0 -47.5 19t-20.5 48z" />
<glyph unicode="&#xc5;" horiz-adv-x="1515" d="M123 0q160 377 317.5 749.5t317.5 749.5q160 -377 317.5 -749.5t317.5 -749.5h-86l-260 614h-576q-56 -130 -260 -614h-88zM506 696h506l-236 555q-4 14 -9 28.5t-9 29.5q-53 -156 -120 -307.5t-132 -305.5zM610 1711q0 62 44 105.5t106 43.5q61 0 105 -43t44 -105.5 t-44 -105.5t-105 -43t-105.5 43t-44.5 105zM674 1710q0 -35 25.5 -60.5t60.5 -25.5t61.5 25.5t26.5 60.5t-26.5 61.5t-61.5 26.5t-60.5 -26.5t-25.5 -61.5z" />
<glyph unicode="&#xc6;" horiz-adv-x="1622" d="M123 0l606 1434h684v-82h-588v-588h508v-82h-508v-600h617v-82h-701v604h-276q-72 -174 -256 -604h-86zM500 686h241v582q-53 -147 -116.5 -292t-124.5 -290z" />
<glyph unicode="&#xc7;" horiz-adv-x="1372" d="M127 718q0 149 57.5 283t156.5 233t232.5 157.5t260.5 58.5q224 0 399 -102l-47 -70q-151 90 -306 90t-273 -52t-206 -142q-188 -191 -188 -461q0 -133 50 -251t138 -206t204 -139t270 -51t309 90l47 -70q-167 -98 -361 -102q0 -53 29 -73t64.5 -43.5t54 -63.5t18.5 -76 q0 -98 -52 -152.5t-124 -54.5q-153 0 -196 133l55 24q12 -39 44 -64.5t85 -25.5t87 39t34 93.5t-24.5 82t-54.5 48t-54.5 42t-24.5 60.5v33q-143 8 -268 68.5t-217.5 158.5t-145.5 227t-53 278z" />
<glyph unicode="&#xc8;" horiz-adv-x="1230" d="M174 0v1434h850v-82h-766v-588h686v-82h-686v-600h795v-82h-879zM363 1808h88q47 -68 92 -136t92 -136h-68q-51 68 -102 136.5t-102 135.5z" />
<glyph unicode="&#xc9;" horiz-adv-x="1230" d="M174 0v1434h850v-82h-766v-588h686v-82h-686v-600h795v-82h-879zM555 1536l184 272h88l-102 -136t-103 -136h-67z" />
<glyph unicode="&#xca;" horiz-adv-x="1230" d="M174 0v1434h850v-82h-766v-588h686v-82h-686v-600h795v-82h-879zM368 1536q61 92 123 185.5t123 185.5q61 -92 122.5 -185.5t123.5 -185.5h-68q-45 61 -89 123.5t-89 124.5l-178 -248h-68z" />
<glyph unicode="&#xcb;" horiz-adv-x="1230" d="M174 0v1434h850v-82h-766v-588h686v-82h-686v-600h795v-82h-879zM366 1634q0 29 20.5 48.5t46.5 19.5t46 -19.5t20 -48.5t-20.5 -48t-46 -19t-46 19t-20.5 48zM704 1634q0 29 20.5 48.5t47.5 19.5t46 -19.5t19 -48.5t-19.5 -48t-45.5 -19q-27 0 -47.5 19t-20.5 48z" />
<glyph unicode="&#xcc;" horiz-adv-x="483" d="M15 1808h88q47 -68 92 -136t92 -136h-68q-51 68 -102 136.5t-102 135.5zM213 0v1434h84v-1434h-84z" />
<glyph unicode="&#xcd;" horiz-adv-x="483" d="M213 0v1434h84v-1434h-84zM217 1536l184 272h88l-102 -136t-103 -136h-67z" />
<glyph unicode="&#xce;" horiz-adv-x="524" d="M10 1536q61 92 123 185.5t123 185.5q61 -92 122.5 -185.5t123.5 -185.5h-68q-45 61 -89 123.5t-89 124.5l-178 -248h-68zM213 0v1434h84v-1434h-84z" />
<glyph unicode="&#xcf;" horiz-adv-x="483" d="M18 1634q0 29 20.5 48.5t46.5 19.5t46 -19.5t20 -48.5t-20.5 -48t-46 -19t-46 19t-20.5 48zM213 0v1434h84v-1434h-84zM356 1634q0 29 20.5 48.5t47.5 19.5t46 -19.5t19 -48.5t-19.5 -48t-45.5 -19q-27 0 -47.5 19t-20.5 48z" />
<glyph unicode="&#xd0;" horiz-adv-x="1323" d="M45 678v84h111v672h293q314 0 527 -194q103 -93 163.5 -226t60.5 -275.5t-44 -269.5t-142.5 -231.5t-256 -171t-382.5 -66.5h-219v678h-111zM240 82h184q301 0 494 173q198 178 198 462q0 289 -194 464q-191 171 -498 171h-184v-590h424v-84h-424v-596z" />
<glyph unicode="&#xd1;" horiz-adv-x="1665" d="M205 0v1499q823 -958 1132 -1319q10 -14 19.5 -26.5t19.5 -26.5l-6 66v1241h86v-1500q-523 601 -1132 1309q-10 14 -19.5 26.5t-19.5 26.5l6 -65v-1231h-86zM538 1563q4 71 60 115q47 38 102 38q90 0 160 -74q54 -57 110 -57q72 0 106 51q13 21 17 54l53 -5 q-4 -72 -59 -115q-48 -38 -103 -38t-90.5 19.5t-70.5 54.5q-50 57 -109 57q-70 0 -106 -51q-15 -21 -19 -54z" />
<glyph unicode="&#xd2;" horiz-adv-x="1718" d="M127 715q0 152 57.5 286t156.5 233t232.5 157.5t284.5 58.5q152 0 286 -58.5t233.5 -157.5t157.5 -233.5t58 -285.5q0 -152 -58 -285t-157.5 -232.5t-233.5 -156.5t-286 -57t-285 57t-232 156.5t-156.5 232.5t-57.5 285zM213 713q0 -135 50 -253t138 -205t205 -138 t250 -51t252 51t208 139q191 189 191 459q0 268 -190 461q-88 90 -207 141t-252 51t-251 -52t-206 -142q-188 -191 -188 -461zM617 1808h88q47 -68 92 -136t92 -136h-68q-51 68 -102 136.5t-102 135.5z" />
<glyph unicode="&#xd3;" horiz-adv-x="1720" d="M127 715q0 152 57.5 286t156.5 233t232.5 157.5t284.5 58.5q152 0 286 -58.5t233.5 -157.5t157.5 -233.5t58 -285.5q0 -152 -58 -285t-157.5 -232.5t-233.5 -156.5t-286 -57t-285 57t-232 156.5t-156.5 232.5t-57.5 285zM213 713q0 -135 50 -253t138 -205t205 -138 t250 -51t252 51t208 139q191 189 191 459q0 268 -190 461q-88 90 -207 141t-252 51t-251 -52t-206 -142q-188 -191 -188 -461zM819 1536l184 272h88l-102 -136t-103 -136h-67z" />
<glyph unicode="&#xd4;" horiz-adv-x="1718" d="M127 715q0 152 57.5 286t156.5 233t232.5 157.5t284.5 58.5q152 0 286 -58.5t233.5 -157.5t157.5 -233.5t58 -285.5q0 -152 -58 -285t-157.5 -232.5t-233.5 -156.5t-286 -57t-285 57t-232 156.5t-156.5 232.5t-57.5 285zM213 713q0 -135 50 -253t138 -205t205 -138 t250 -51t252 51t208 139q191 189 191 459q0 268 -190 461q-88 90 -207 141t-252 51t-251 -52t-206 -142q-188 -191 -188 -461zM606 1536q61 92 123 185.5t123 185.5q61 -92 122.5 -185.5t123.5 -185.5h-68q-45 61 -89 123.5t-89 124.5l-178 -248h-68z" />
<glyph unicode="&#xd5;" horiz-adv-x="1718" d="M127 715q0 152 57.5 286t156.5 233t232.5 157.5t284.5 58.5q152 0 286 -58.5t233.5 -157.5t157.5 -233.5t58 -285.5q0 -152 -58 -285t-157.5 -232.5t-233.5 -156.5t-286 -57t-285 57t-232 156.5t-156.5 232.5t-57.5 285zM213 713q0 -135 50 -253t138 -205t205 -138 t250 -51t252 51t208 139q191 189 191 459q0 268 -190 461q-88 90 -207 141t-252 51t-251 -52t-206 -142q-188 -191 -188 -461zM551 1633q4 71 60 115q47 38 102 38q90 0 160 -74q54 -57 110 -57q72 0 106 51q13 21 17 54l53 -5q-4 -72 -59 -115q-48 -38 -103 -38t-90.5 19.5 t-70.5 54.5q-50 57 -109 57q-70 0 -106 -51q-15 -21 -19 -54z" />
<glyph unicode="&#xd6;" horiz-adv-x="1718" d="M127 715q0 152 57.5 286t156.5 233t232.5 157.5t284.5 58.5q152 0 286 -58.5t233.5 -157.5t157.5 -233.5t58 -285.5q0 -152 -58 -285t-157.5 -232.5t-233.5 -156.5t-286 -57t-285 57t-232 156.5t-156.5 232.5t-57.5 285zM213 713q0 -135 50 -253t138 -205t205 -138 t250 -51t252 51t208 139q191 189 191 459q0 268 -190 461q-88 90 -207 141t-252 51t-251 -52t-206 -142q-188 -191 -188 -461zM622 1634q0 29 20.5 48.5t46.5 19.5t46 -19.5t20 -48.5t-20.5 -48t-46 -19t-46 19t-20.5 48zM960 1634q0 29 20.5 48.5t47.5 19.5t46 -19.5 t19 -48.5t-19.5 -48t-45.5 -19q-27 0 -47.5 19t-20.5 48z" />
<glyph unicode="&#xd7;" horiz-adv-x="1024" d="M250 59l116 115q56 57 113 117l-229 229l61 62l230 -230l231 230l59 -60l-231 -229l231 -232l-59 -61l-233 231l-230 -231z" />
<glyph unicode="&#xd8;" horiz-adv-x="1720" d="M127 713q0 154 57.5 288t156.5 233t232.5 157.5t284.5 58.5q243 0 436 -145l129 153q41 -35 58 -51q-75 -89 -127 -152q111 -100 175 -240.5t64 -296t-58 -288.5t-157.5 -232.5t-233.5 -156.5t-286 -57q-250 0 -448 153l-138 -162l-57 54l135 159q-104 100 -163.5 235.5 t-59.5 289.5zM213 713q0 -135 50 -254t140 -207q676 800 836 989q-177 127 -381 127q-133 0 -251 -52t-206 -142q-188 -191 -188 -461zM463 201q168 -135 391 -135q135 0 254 51t208 139q191 189 191 459q0 141 -56 263t-155 212z" />
<glyph unicode="&#xd9;" horiz-adv-x="1335" d="M190 463v971h84v-965q0 -189 112 -299q106 -104 286 -104q174 0 286 104q113 106 113 299v965h86v-971q0 -229 -139 -357q-132 -122 -347 -122q-103 0 -191.5 30.5t-153.5 91.5q-136 128 -136 357zM439 1808h88q47 -68 92 -136t92 -136h-68q-51 68 -102 136.5t-102 135.5 z" />
<glyph unicode="&#xda;" horiz-adv-x="1335" d="M190 463v971h84v-965q0 -189 112 -299q106 -104 286 -104q174 0 286 104q113 106 113 299v965h86v-971q0 -229 -139 -357q-132 -122 -347 -122q-103 0 -191.5 30.5t-153.5 91.5q-136 128 -136 357zM615 1536l184 272h88l-102 -136t-103 -136h-67z" />
<glyph unicode="&#xdb;" horiz-adv-x="1335" d="M190 463v971h84v-965q0 -189 112 -299q106 -104 286 -104q174 0 286 104q113 106 113 299v965h86v-971q0 -229 -139 -357q-132 -122 -347 -122q-103 0 -191.5 30.5t-153.5 91.5q-136 128 -136 357zM422 1597q61 92 123 185.5t123 185.5q61 -92 122.5 -185.5t123.5 -185.5 h-68q-45 61 -89 123.5t-89 124.5l-178 -248h-68z" />
<glyph unicode="&#xdc;" horiz-adv-x="1335" d="M190 463v971h84v-965q0 -189 112 -299q106 -104 286 -104q174 0 286 104q113 106 113 299v965h86v-971q0 -229 -139 -357q-132 -122 -347 -122q-103 0 -191.5 30.5t-153.5 91.5q-136 128 -136 357zM440 1634q0 29 20.5 48.5t46.5 19.5t46 -19.5t20 -48.5t-20.5 -48 t-46 -19t-46 19t-20.5 48zM778 1634q0 29 20.5 48.5t47.5 19.5t46 -19.5t19 -48.5t-19.5 -48t-45.5 -19q-27 0 -47.5 19t-20.5 48z" />
<glyph unicode="&#xdd;" horiz-adv-x="1306" d="M70 1434h104q113 -193 227.5 -379.5t225.5 -378.5q6 -16 12 -29.5t12 -28.5h2q14 33 23 58q246 406 450 758h105l-529 -891v-543h-102v543q-217 364 -530 891zM602 1536l184 272h88l-102 -136t-103 -136h-67z" />
<glyph unicode="&#xde;" horiz-adv-x="1026" d="M205 0v1434h86v-338h221q156 0 284 -86q156 -106 156 -285.5t-112.5 -284t-323.5 -104.5h-225v-336h-86zM291 420h211q195 0 290 102q74 79 74 199q0 117 -103 205t-259 88h-213v-594z" />
<glyph unicode="&#xdf;" horiz-adv-x="1173" d="M45 729v82h133v59q0 219 119 350q113 124 281 128q127 -4 215 -94t88 -216q0 -78 -42 -142.5t-108 -98.5q120 -41 199 -147q78 -105 78 -240q0 -175 -128 -302q-127 -124 -305 -124q-108 0 -200 51l35 74q74 -43 154.5 -43t144 27.5t110.5 74.5q103 103 103 242 q0 137 -103 238q-102 100 -244 100v86q92 0 156 55t64 145q0 92 -61.5 161t-141.5 68t-137.5 -29t-100.5 -78q-92 -107 -92 -286v-870h-84v729h-133z" />
<glyph unicode="&#xe0;" horiz-adv-x="1128" d="M100 385q0 162 118 281q116 118 286 118q114 0 209 -62q84 -55 116 -134l9 180h69v-768h-78v92q0 23 1 43.5t1 42.5q-25 -73 -113 -132q-90 -60 -194 -60t-178 31.5t-128 84.5q-118 117 -118 283zM186 385q0 -128 92 -223q88 -92 226 -92q133 0 225 92t92 223 q0 133 -92 225t-225 92q-138 0 -226 -92q-92 -95 -92 -225zM275 1253h88q47 -68 92 -136t92 -136h-68q-51 68 -102 136.5t-102 135.5z" />
<glyph unicode="&#xe1;" horiz-adv-x="1128" d="M100 385q0 162 118 281q116 118 286 118q114 0 209 -62q84 -55 116 -134l9 180h69v-768h-78v92q0 23 1 43.5t1 42.5q-25 -73 -113 -132q-90 -60 -194 -60t-178 31.5t-128 84.5q-118 117 -118 283zM186 385q0 -128 92 -223q88 -92 226 -92q133 0 225 92t92 223 q0 133 -92 225t-225 92q-138 0 -226 -92q-92 -95 -92 -225zM475 981l184 272h88l-102 -136t-103 -136h-67z" />
<glyph unicode="&#xe2;" horiz-adv-x="1128" d="M100 385q0 162 118 281q116 118 286 118q114 0 209 -62q84 -55 116 -134l9 180h69v-768h-78v92q0 23 1 43.5t1 42.5q-25 -73 -113 -132q-90 -60 -194 -60t-178 31.5t-128 84.5q-118 117 -118 283zM186 385q0 -128 92 -223q88 -92 226 -92q133 0 225 92t92 223 q0 133 -92 225t-225 92q-138 0 -226 -92q-92 -95 -92 -225zM288 981q61 92 123 185.5t123 185.5q61 -92 122.5 -185.5t123.5 -185.5h-68q-45 61 -89 123.5t-89 124.5l-178 -248h-68z" />
<glyph unicode="&#xe3;" horiz-adv-x="1128" d="M100 385q0 162 118 281q116 118 286 118q114 0 209 -62q84 -55 116 -134l9 180h69v-768h-78v92q0 23 1 43.5t1 42.5q-25 -73 -113 -132q-90 -60 -194 -60t-178 31.5t-128 84.5q-118 117 -118 283zM186 385q0 -128 92 -223q88 -92 226 -92q133 0 225 92t92 223 q0 133 -92 225t-225 92q-138 0 -226 -92q-92 -95 -92 -225zM252 963q4 71 60 115q47 38 102 38q90 0 160 -74q54 -57 110 -57q72 0 106 51q13 21 17 54l53 -5q-4 -72 -59 -115q-48 -38 -103 -38t-90.5 19.5t-70.5 54.5q-50 57 -109 57q-70 0 -106 -51q-15 -21 -19 -54z" />
<glyph unicode="&#xe4;" horiz-adv-x="1128" d="M100 385q0 162 118 281q116 118 286 118q114 0 209 -62q84 -55 116 -134l9 180h69v-768h-78v92q0 23 1 43.5t1 42.5q-25 -73 -113 -132q-90 -60 -194 -60t-178 31.5t-128 84.5q-118 117 -118 283zM186 385q0 -128 92 -223q88 -92 226 -92q133 0 225 92t92 223 q0 133 -92 225t-225 92q-138 0 -226 -92q-92 -95 -92 -225zM303 1040q0 29 20.5 48.5t46.5 19.5t46 -19.5t20 -48.5t-20.5 -48t-46 -19t-46 19t-20.5 48zM641 1040q0 29 20.5 48.5t47.5 19.5t46 -19.5t19 -48.5t-19.5 -48t-45.5 -19q-27 0 -47.5 19t-20.5 48z" />
<glyph unicode="&#xe5;" horiz-adv-x="1128" d="M100 385q0 162 118 281q116 118 286 118q114 0 209 -62q84 -55 116 -134l9 180h69v-768h-78v92q0 23 1 43.5t1 42.5q-25 -73 -113 -132q-90 -60 -194 -60t-178 31.5t-128 84.5q-118 117 -118 283zM186 385q0 -128 92 -223q88 -92 226 -92q133 0 225 92t92 223 q0 133 -92 225t-225 92q-138 0 -226 -92q-92 -95 -92 -225zM362 1106q0 61 44.5 105t105.5 44t105.5 -44t44.5 -105t-44.5 -105.5t-105.5 -44.5t-105.5 44.5t-44.5 105.5zM426 1106q0 -35 25.5 -61.5t60.5 -26.5t61.5 26.5t26.5 61.5t-26.5 60.5t-61.5 25.5t-60.5 -25.5 t-25.5 -60.5z" />
<glyph unicode="&#xe6;" horiz-adv-x="1288" d="M96 207.5q0 62.5 25.5 102.5t67.5 64q78 46 210 46h252v82q0 111 -41 152q-48 48 -192 48q-85 0 -178 -42q-25 -11 -41 -23q-11 13 -52 57q69 63 198 85q40 7 75 7q150 0 221 -38q150 71 291 16q110 -42 182 -150q35 -53 53 -116l-430 -168v-64q0 -115 -55 -170 q59 -27 133 -26q129 0 215 86l53 -62q-112 -108 -268 -108q-102 0 -184 43q-72 -45 -211 -45q-238 0 -300 117q-24 44 -24 106.5zM182 213q0 -47 22.5 -74.5t58.5 -42.5q64 -28 159 -28q229 0 229 153v111h-210t-137 -11.5t-86 -36t-36 -71.5zM690 678q47 -50 47 -180v-78 q80 31 161 62.5t161 62.5q-37 72 -101.5 114.5t-121.5 42.5q-76 0 -146 -24z" />
<glyph unicode="&#xe7;" horiz-adv-x="794" d="M74 385q0 167 118 283t283 116q147 0 256 -88l-55 -63q-86 69 -201 69q-134 0 -224 -92q-91 -93 -91 -225q0 -130 91 -223q90 -92 215.5 -92.5t209.5 67.5q40 -46 53 -63q-100 -82 -242 -88q0 -61 57 -94q71 -42 91 -85t20 -79q0 -92 -45 -141.5t-98 -57.5t-94 0t-80 39 t-57 86q14 6 28.5 12t28.5 12q10 -39 43 -64.5t85 -25.5t87 39t35 93.5t-24.5 82t-55.5 48t-55.5 42t-24.5 60.5v39q-151 16 -253 126q-101 109 -101 267z" />
<glyph unicode="&#xe8;" horiz-adv-x="923" d="M74 385q0 167 118 283t283 116q119 0 218 -80q98 -81 134 -206l-634 -252q35 -78 110.5 -127t188 -49t198.5 86q5 -6 53 -64q-115 -106 -268 -106q-165 0 -283 116t-118 283zM168 326l551 219q-35 70 -100.5 113.5t-135 43.5t-125 -21.5t-96.5 -60.5q-126 -118 -94 -294z M203 1253h88q47 -68 92 -136t92 -136h-68q-51 68 -102 136.5t-102 135.5z" />
<glyph unicode="&#xe9;" horiz-adv-x="923" d="M74 385q0 167 118 283t283 116q119 0 218 -80q98 -81 134 -206l-634 -252q35 -78 110.5 -127t188 -49t198.5 86q5 -6 53 -64q-115 -106 -268 -106q-165 0 -283 116t-118 283zM168 326l551 219q-35 70 -100.5 113.5t-135 43.5t-125 -21.5t-96.5 -60.5q-126 -118 -94 -294z M465 981l184 272h88l-102 -136t-103 -136h-67z" />
<glyph unicode="&#xea;" horiz-adv-x="923" d="M74 385q0 167 118 283t283 116q119 0 218 -80q98 -81 134 -206l-634 -252q35 -78 110.5 -127t188 -49t198.5 86q5 -6 53 -64q-115 -106 -268 -106q-165 0 -283 116t-118 283zM168 326l551 219q-35 70 -100.5 113.5t-135 43.5t-125 -21.5t-96.5 -60.5q-126 -118 -94 -294z M229 981q61 92 123 185.5t123 185.5q61 -92 122.5 -185.5t123.5 -185.5h-68q-45 61 -89 123.5t-89 124.5l-178 -248h-68z" />
<glyph unicode="&#xeb;" horiz-adv-x="923" d="M74 385q0 167 118 283t283 116q119 0 218 -80q98 -81 134 -206l-634 -252q35 -78 110.5 -127t188 -49t198.5 86q5 -6 53 -64q-115 -106 -268 -106q-165 0 -283 116t-118 283zM168 326l551 219q-35 70 -100.5 113.5t-135 43.5t-125 -21.5t-96.5 -60.5q-126 -118 -94 -294z M233 1040q0 29 20.5 48.5t46.5 19.5t46 -19.5t20 -48.5t-20.5 -48t-46 -19t-46 19t-20.5 48zM571 1040q0 29 20.5 48.5t47.5 19.5t46 -19.5t19 -48.5t-19.5 -48t-45.5 -19q-27 0 -47.5 19t-20.5 48z" />
<glyph unicode="&#xec;" horiz-adv-x="356" d="M-49 1253h88q47 -68 92 -136t92 -136h-67q-137 183 -205 272zM154 0v768h84v-768h-84z" />
<glyph unicode="&#xed;" horiz-adv-x="405" d="M145 0v768h84v-768h-84zM162 981l184 272h88l-102 -136t-103 -136h-67z" />
<glyph unicode="&#xee;" horiz-adv-x="489" d="M-8 981q61 92 123 185.5t123 185.5q61 -92 122.5 -185.5t122.5 -185.5h-67q-45 61 -89 123.5t-89 124.5l-179 -248h-67zM195 0v768h86v-768h-86z" />
<glyph unicode="&#xef;" horiz-adv-x="555" d="M53 1040q0 29 20.5 48.5t46.5 19.5t46 -19.5t20 -48.5t-20.5 -48t-46 -19t-46 19t-20.5 48zM252 0v768h86v-768h-86zM391 1040q0 29 20.5 48.5t47.5 19.5t46 -19.5t19 -48.5t-19.5 -48t-45.5 -19q-27 0 -47.5 19t-20.5 48z" />
<glyph unicode="&#xf0;" horiz-adv-x="1009" d="M106 383q0 168 114 283q118 120 284 120q154 4 254 -114q-70 265 -285 522l-129 -139l-57 53l139 149q-92 102 -190 183l57 57q98 -78 190 -178q31 35 63 67.5t60 67.5l58 -49q-100 -112 -132 -145q262 -317 350 -646q31 -114 31 -209.5t-30.5 -168t-84.5 -128.5 q-112 -116 -284 -120q-171 0 -286.5 113.5t-121.5 281.5zM193 385q0 -131 92 -223q90 -90 227 -90q134 0 226 94q89 91 89 223q0 131 -94 225q-91 91 -225 91q-133 0 -226 -95q-89 -91 -89 -225z" />
<glyph unicode="&#xf1;" horiz-adv-x="1071" d="M211 0v768h78v-136q0 -28 2 -63q41 96 131 155.5t204 59.5t179 -63.5t69 -165.5v-555h-86v532q-4 66 -48 115t-117.5 51t-131 -19.5t-100.5 -58.5q-94 -79 -94 -200v-420h-86zM274 945q4 71 60 115q47 38 102 38q90 0 160 -74q54 -57 110 -57q72 0 106 51q13 21 17 54 l53 -5q-4 -72 -59 -115q-48 -38 -103 -38t-90.5 19.5t-70.5 54.5q-50 57 -109 57q-70 0 -106 -51q-15 -21 -19 -54z" />
<glyph unicode="&#xf2;" horiz-adv-x="960" d="M74 384q0 83 31.5 156.5t86.5 127.5q117 118 283 118q168 0 287 -118q119 -117 119 -283q0 -167 -119 -283q-120 -116 -287 -116q-165 0 -283 116t-118 282zM160 385q0 -131 92 -223t223 -92t223 92q95 95 95 223t-95 223q-94 94 -223 94t-223 -94q-92 -92 -92 -223z M209 1253h88q47 -68 92 -136t92 -136h-68q-51 68 -102 136.5t-102 135.5z" />
<glyph unicode="&#xf3;" horiz-adv-x="960" d="M74 384q0 83 31.5 156.5t86.5 127.5q117 118 283 118q168 0 287 -118q119 -117 119 -283q0 -167 -119 -283q-120 -116 -287 -116q-165 0 -283 116t-118 282zM160 385q0 -131 92 -223t223 -92t223 92q95 95 95 223t-95 223q-94 94 -223 94t-223 -94q-92 -92 -92 -223z M473 981l184 272h88l-102 -136t-103 -136h-67z" />
<glyph unicode="&#xf4;" horiz-adv-x="960" d="M74 384q0 83 31.5 156.5t86.5 127.5q117 118 283 118q168 0 287 -118q119 -117 119 -283q0 -167 -119 -283q-120 -116 -287 -116q-165 0 -283 116t-118 282zM160 385q0 -131 92 -223t223 -92t223 92q95 95 95 223t-95 223q-94 94 -223 94t-223 -94q-92 -92 -92 -223z M229 981q61 92 123 185.5t123 185.5q61 -92 122.5 -185.5t123.5 -185.5h-68q-45 61 -89 123.5t-89 124.5l-178 -248h-68z" />
<glyph unicode="&#xf5;" horiz-adv-x="960" d="M74 384q0 83 31.5 156.5t86.5 127.5q117 118 283 118q168 0 287 -118q119 -117 119 -283q0 -167 -119 -283q-120 -116 -287 -116q-165 0 -283 116t-118 282zM160 385q0 -131 92 -223t223 -92t223 92q95 95 95 223t-95 223q-94 94 -223 94t-223 -94q-92 -92 -92 -223z M180 963q4 71 60 115q47 38 102 38q90 0 160 -74q54 -57 110 -57q72 0 106 51q13 21 17 54l53 -5q-4 -72 -59 -115q-48 -38 -103 -38t-90.5 19.5t-70.5 54.5q-50 57 -109 57q-70 0 -106 -51q-15 -21 -19 -54z" />
<glyph unicode="&#xf6;" horiz-adv-x="960" d="M74 384q0 83 31.5 156.5t86.5 127.5q117 118 283 118q168 0 287 -118q119 -117 119 -283q0 -167 -119 -283q-120 -116 -287 -116q-165 0 -283 116t-118 282zM160 385q0 -131 92 -223t223 -92t223 92q95 95 95 223t-95 223q-94 94 -223 94t-223 -94q-92 -92 -92 -223z M245 1040q0 29 20.5 48.5t46.5 19.5t46 -19.5t20 -48.5t-20.5 -48t-46 -19t-46 19t-20.5 48zM583 1040q0 29 20.5 48.5t47.5 19.5t46 -19.5t19 -48.5t-19.5 -48t-45.5 -19q-27 0 -47.5 19t-20.5 48z" />
<glyph unicode="&#xf7;" horiz-adv-x="1026" d="M139 426v84h738v-84h-738zM446 213q0 29 20.5 48.5t47.5 19.5t46.5 -19.5t19.5 -48.5t-19.5 -48.5t-46.5 -19.5t-47.5 19.5t-20.5 48.5zM446 725q0 29 20.5 48.5t47.5 19.5t46.5 -19.5t19.5 -48.5t-19.5 -48.5t-46.5 -19.5t-47.5 19.5t-20.5 48.5z" />
<glyph unicode="&#xf8;" horiz-adv-x="958" d="M74 385q0 167 118 283t283 116q124 0 223 -65l70 80l47 -43q-26 -29 -65 -78q59 -53 95 -130t36 -162t-32 -157.5t-87 -126.5q-120 -116 -271 -116t-260 82l-81 -99q-40 33 -50 41l84 99q-110 110 -110 276zM160 385q0 -122 80 -211q102 121 201.5 239.5t201.5 239.5 q-75 49 -155.5 49t-137.5 -24.5t-99 -67.5q-91 -93 -91 -225zM287 131q79 -61 167.5 -61t146.5 24.5t101 67.5q93 93 93 223q0 137 -101 229q-9 -11 -407 -483z" />
<glyph unicode="&#xf9;" horiz-adv-x="1083" d="M211 213v555h86v-532q4 -66 48 -115t117.5 -51t131 19.5t100.5 58.5q94 79 94 200v420h86v-776h-86v114l7 93q-41 -98 -132.5 -156.5t-203.5 -58.5q-113 0 -178.5 63.5t-69.5 165.5zM320 1253h88q47 -68 92 -136t92 -136h-68q-51 68 -102 136.5t-102 135.5z" />
<glyph unicode="&#xfa;" horiz-adv-x="1083" d="M211 213v555h86v-532q4 -66 48 -115t117.5 -51t131 19.5t100.5 58.5q94 79 94 200v420h86v-776h-86v114l7 93q-41 -98 -132.5 -156.5t-203.5 -58.5q-113 0 -178.5 63.5t-69.5 165.5zM473 981l184 272h88l-102 -136t-103 -136h-67z" />
<glyph unicode="&#xfb;" horiz-adv-x="1083" d="M211 213v555h86v-532q4 -66 48 -115t117.5 -51t131 19.5t100.5 58.5q94 79 94 200v420h86v-776h-86v114l7 93q-41 -98 -132.5 -156.5t-203.5 -58.5q-113 0 -178.5 63.5t-69.5 165.5zM299 981q61 92 123 185.5t123 185.5q61 -92 122.5 -185.5t123.5 -185.5h-68 q-45 61 -89 123.5t-89 124.5l-178 -248h-68z" />
<glyph unicode="&#xfc;" horiz-adv-x="1083" d="M211 213v555h86v-532q4 -66 48 -115t117.5 -51t131 19.5t100.5 58.5q94 79 94 200v420h86v-776h-86v114l7 93q-41 -98 -132.5 -156.5t-203.5 -58.5q-113 0 -178.5 63.5t-69.5 165.5zM299 1040q0 29 20.5 48.5t46.5 19.5t46 -19.5t20 -48.5t-20.5 -48t-46 -19t-46 19 t-20.5 48zM637 1040q0 29 20.5 48.5t47.5 19.5t46 -19.5t19 -48.5t-19.5 -48t-45.5 -19q-27 0 -47.5 19t-20.5 48z" />
<glyph unicode="&#xfd;" horiz-adv-x="999" d="M78 768h90q86 -172 176 -344t166 -346q78 174 167 346t175 344h90q-238 -479 -641 -1280h-90l254 508q-98 193 -193.5 385t-193.5 387zM494 981l184 272h88l-102 -136t-103 -136h-67z" />
<glyph unicode="&#xfe;" horiz-adv-x="1140" d="M137 -512v2048h86v-846q-4 -27 -6 -53.5t-4 -52.5q24 74 117 134q98 62 196.5 62t172 -31.5t127.5 -84.5q118 -116 118 -281q0 -164 -117.5 -281.5t-285.5 -117.5q-179 0 -284 120q-30 35 -42 70q5 -53 8 -84v-602h-86zM223 383q0 -132 91 -225q90 -92 227 -92 q136 0 226 92q91 93 91 226q0 67 -24.5 124t-66.5 99q-91 91 -226 91q-136 0 -227 -91t-91 -224z" />
<glyph unicode="&#xff;" horiz-adv-x="999" d="M78 768h90q86 -172 176 -344t166 -346q78 174 167 346t175 344h90q-238 -479 -641 -1280h-90l254 508q-98 193 -193.5 385t-193.5 387zM286 1040q0 29 20.5 48.5t46.5 19.5t46 -19.5t20 -48.5t-20.5 -48t-46 -19t-46 19t-20.5 48zM624 1040q0 29 20.5 48.5t47.5 19.5 t46 -19.5t19 -48.5t-19.5 -48t-45.5 -19q-27 0 -47.5 19t-20.5 48z" />
<glyph unicode="&#x2000;" horiz-adv-x="984" />
<glyph unicode="&#x2001;" horiz-adv-x="1968" />
<glyph unicode="&#x2002;" horiz-adv-x="984" />
<glyph unicode="&#x2003;" horiz-adv-x="1968" />
<glyph unicode="&#x2004;" horiz-adv-x="656" />
<glyph unicode="&#x2005;" horiz-adv-x="492" />
<glyph unicode="&#x2006;" horiz-adv-x="328" />
<glyph unicode="&#x2007;" horiz-adv-x="328" />
<glyph unicode="&#x2008;" horiz-adv-x="246" />
<glyph unicode="&#x2009;" horiz-adv-x="393" />
<glyph unicode="&#x200a;" horiz-adv-x="109" />
<glyph unicode="&#x2010;" d="M109 346v84h376v-84h-376z" />
<glyph unicode="&#x2011;" d="M109 346v84h376v-84h-376z" />
<glyph unicode="&#x2012;" d="M109 346v84h376v-84h-376z" />
<glyph unicode="&#x2013;" horiz-adv-x="1042" d="M205 362v84h616v-84h-616z" />
<glyph unicode="&#x2014;" horiz-adv-x="1433" d="M203 362v84h1028v-84h-1028z" />
<glyph unicode="&#x2018;" horiz-adv-x="335" d="M74 1456l67 -14q-28 -143 68 -234l-41 -41q-59 53 -85 129t-9 160z" />
<glyph unicode="&#x2019;" horiz-adv-x="335" d="M100 1208q96 91 68 234l68 14q16 -84 -10 -160t-85 -129z" />
<glyph unicode="&#x201a;" horiz-adv-x="299" d="M41 -59q96 91 68 233l65 14q16 -84 -8.5 -159.5t-83.5 -128.5q-23 18 -41 41z" />
<glyph unicode="&#x201c;" horiz-adv-x="509" d="M63 1456l66 -14q-28 -143 68 -234l-41 -41q-59 53 -84 129t-9 160zM276 1456l66 -14q-28 -143 68 -234l-41 -41q-59 53 -84 129t-9 160z" />
<glyph unicode="&#x201d;" horiz-adv-x="507" d="M63 1208q96 91 68 234l66 14q16 -84 -9 -160t-84 -129zM276 1208q96 91 68 234l66 14q16 -84 -9 -160t-84 -129z" />
<glyph unicode="&#x201e;" horiz-adv-x="567" d="M41 -59q96 91 68 233l65 14q16 -84 -8.5 -159.5t-83.5 -128.5q-23 18 -41 41zM254 -59q96 91 68 233l65 14q16 -84 -8.5 -159.5t-83.5 -128.5q-23 18 -41 41z" />
<glyph unicode="&#x2022;" horiz-adv-x="980" d="M307 613.5q0 77.5 53 132.5t130 55t131.5 -54.5t54.5 -132.5q0 -76 -54 -128q-56 -54 -133.5 -54t-129.5 52t-52 129.5z" />
<glyph unicode="&#x202f;" horiz-adv-x="393" />
<glyph unicode="&#x2039;" horiz-adv-x="802" d="M240 489q88 84 175 165t175 165v-98l-228 -232l228 -233v-98z" />
<glyph unicode="&#x203a;" horiz-adv-x="802" d="M239 158l350 331q-88 84 -175 165t-175 165v-98l228 -232l-228 -233v-98z" />
<glyph unicode="&#x205f;" horiz-adv-x="492" />
<glyph unicode="&#xe000;" horiz-adv-x="768" d="M0 0v768h768v-768h-768z" />
</font>
</defs>
</svg>
